Правила форума

  • В этом разделе создание новых тем Запрещено.
  • Для создания новых тем пользуйтесь Корневым разделом DVD и HD фильмы.
Начать новую темуОтветить на тему  [ Сообщений: 4 ] 
Торрент файл
Размер: 4.27 GB • Зарегистрирован: 3 года 7 месяцев • Статус: Проверено
Скачан: 119 раз • Желающих скачать: 0 • Поблагодарили: 30 раз
 Раздают: 1  |  0 KB/s  ]   Качают: 0  |  0 KB/s  ] 
Сообщения
 Добавлено: 2013-04-17 11:57
DVD Release Group
Аватара пользователя
Стаж: 7 лет 1 месяц
Сообщений: 3542
Спасибок: 246708
Лайков: 1016
Маньяк

Maniac

«Охота началась!»


Изображение


Год выпуска: 2012
Страна: Франция, США
Жанр: Ужасы, триллер, криминал
Продолжительность: 01:25:16
Перевод: Профессиональный (полное дублирование)
Режиссер: Франк Халфун
В ролях: Элайджа Вуд, Нора Арнезедер, Лиэн Балабан, Америка Оливо, Сэмми Ротиби, Меган Даффи, Фридом Морган
Описание: Улицы Лос-Анджелеса кажутся тихими и безопасными, но это не так. Серийный убийца, снимающий скальпы со своих жертв вновь выходит на охоту. Днем, Фрэнк — тихий владелец мастерской по реставрации манекенов, а ночью — безжалостный маньяк, убивающий исключительно женщин. Но его размеренная жизнь тихони-маньяка меняется, когда в ней появляется молодая фото-художница Анна, которой нужна его помощь в проведении выставки. Чем дальше развиваются их отношения, тем сложнее становится Фрэнку сделать выбор — ещё один скальп в качестве трофея или реальная любовь.
Изображение
Sample:
http://multi-up.com/855479
Качество: DVD5
Формат: DVD Video
Видео кодек: MPEG2
Аудио кодек: AC3
Видео: 720х576 25fps 6516Kbps
Аудио: 48kHz 6ch 448Kbps
"MediaInfo"
Формат : MPEG-PS
Размер файла : 1024 Мбайт
Продолжительность : 20 м.
Режим общего битрейта : Переменный
Общий поток : 7106 Кбит/сек

Видео
Идентификатор : 224 (0xE0)
Формат : MPEG Video
Версия формата : Version 2
Профиль формата : Main@Main
Параметр BVOP формата : Да
Параметр матрицы формата : Выборочная
Параметр GOP формата : M=3, N=15
Продолжительность : 20 м.
Вид битрейта : Переменный
Битрейт : 6516 Кбит/сек
Максимальный битрейт : 9000 Кбит/сек
Ширина : 720 пикселей
Высота : 576 пикселей
Соотношение сторон : 16:9
Частота кадров : 25,000 кадров/сек
Стандарт вещания : PAL
Цветовое пространство : YUV
Субдискретизация насыщенности : 4:2:0
Битовая глубина : 8 бит
Тип развёртки : Чересстрочная
Порядок развёртки : Верхнее поле первое
Метод сжатия : С потерями
Бит/(Пиксели*Кадры) : 0.629
Размер потока : 939 Мбайт (92%)
Основные цвета : BT.470-2 System B, BT.470-2 System G
Характеристики трансфера : BT.470-2 System B, BT.470-2 System G
Коэффициенты матрицы : BT.470-2 System B, BT.470-2 System G

Аудио
Идентификатор : 189 (0xBD)-128 (0x80)
Формат : AC-3
Формат/Информация : Audio Coding 3
Расширение режима : CM (complete main)
Режим смешивания : DVD-Video
Продолжительность : 20 м.
Вид битрейта : Постоянный
Битрейт : 448 Кбит/сек
Каналы : 6 каналов
Расположение каналов : Front: L C R, Side: L R, LFE
Частота : 48,0 КГц
Битовая глубина : 16 бит
Метод сжатия : С потерями
Задержка видео : -80 мс.
Размер потока : 64,5 Мбайт (6%)

Меню
Свернуть

"Скриншоты"
Изображение
Изображение
Изображение
Изображение
Изображение
Свернуть

Раздача группы:
Изображение
Не в сети
Профиль  
 Добавлено: 2013-04-21 14:36 (спустя 4 дня)
Аватара пользователя
Стаж: 8 лет 7 месяцев
Сообщений: 47
Лайков: 1
мура какая то .половина даже недосмотрел
Не в сети
Профиль  
 Добавлено: 2013-04-25 18:40 (спустя 4 дня)
Аватара пользователя
Стаж: 8 лет
Сообщений: 40
как фильмец народ
Не в сети
Профиль  
 Добавлено: 2013-05-03 15:29 (спустя 7 дней)
Стаж: 6 лет 8 месяцев
Сообщений: 59
разок глянуть мохно
Не в сети
Профиль  
Начать новую темуОтветить на тему  [ Сообщений: 4 ] 
Вы не можете начинать темы
Вы не можете отвечать на сообщения
Вы не можете редактировать свои сообщения
Вы не можете удалять свои сообщения