Правила форума

  • В этом разделе создание новых тем Запрещено.
  • Для создания новых тем пользуйтесь Корневым разделом DVD и HD фильмы.
Начать новую темуОтветить на тему  [ 1 сообщение ] 
Торрент файл
Размер: 5.38 GB • Зарегистрирован: 5 лет 1 месяц • Статус: Проверено
Скачан: 42 раза • Желающих скачать: 0 • Поблагодарили: 3 раза
 Раздают: 0  |  0 KB/s  ]   Качают: 0  |  0 KB/s  ] 
 Полного источника не было 3 года 2 месяца 
Сообщения
 Добавлено: 2011-11-08 01:20
Аватара пользователя
Стаж: 5 лет 6 месяцев
Возраст: 30
Сообщений: 353
Спасибок: 7455
Марли и я 2 / Marley & Me: The Puppy Years

Изображение


Год выпуска: 2011
Страна: США (Twentieth Century Fox Film Corporation)
Жанр: комедия, семейный
Продолжительность: 01:22:35
Перевод: Оригинальная звуковая дорожка + закадровый + Профессиональный (многоголосый закадровый) + закадровый
Субтитры: Английские, арабские, эстонские, греческие, исландские, латышские, литовские, польские, португальские, румынские, русские, испанские, турецкие, испанские

Режиссёр: Майкл Дамиан / Michael Damian
Сценарист: Janeen Damian, Майкл Дамиан
Продюсер: Конни Дельфин, Janeen Damian
Оператор: Рон Стэннет
Композитор: Марк Томас

В ролях: Трэвис Тернер, Доннелли Роудс, Меррилин Гэнн, Чела Хорсдэл, Сидни Имбо, Алекс Захара, Кристофер Гудман, Райан Грэнтхем, Гордон Грис, Джофф Густафссон

Описание: Марли возвращается, и на этот раз он умеет говорить! Вместе со своим приятелем Боди Гроганом, Марли создает переполох на районном собачьем конкурсе. Перехитрив всех остальных участников, он, как обычно, с легкостью завоевывает сердца зрителей.

Доп.информация: "Марли и я": подготовка к съемкам, член семьи, избранное
Рейтинг MPAA: Рейтинг PG (Детям рекомендуется смотреть фильм с родителями)

Изображение Изображение Изображение

Качество: DVD9 R5
Формат: DVD Video
Видео кодек: MPEG2
Аудио кодек: AC3 (Dolby Digital)
Видео: PAL 16:9 (720x576(0.571)) MPEG Video, 25,000 кадр/сек, 5919 Кбит/сек
Аудио #1: English (Dolby AC3, 6 ch) 448 Кбит/сек, 48,0 КГц [Оригинальная звуковая дорожка]
Аудио #2: Polish (Dolby AC3, 6 ch) 384 Кбит/сек, 48,0 КГц [закадровый]
Аудио #3: Russian (Dolby AC3, 6 ch) 384 Кбит/сек, 48,0 КГц [Профессиональный (многоголосый закадровый)]
Аудио #4: Espanol (Dolby AC3, 6 ch) 384 Кбит/сек, 48,0 КГц [закадровый]
Субтитры: Английские, арабские, эстонские, греческие, исландские, латышские, литовские, польские, португальские, румынские, русские, испанские, турецкие, испанские

"DVDInfo"
Title: Рабочий
Size: 5.38 Gb ( 5 639 670 KBytes ) - DVD-9
Enabled regions: 1, 2, 3, 4, 5, 6, 7, 8

VTS_01 :
Play Length: 01:22:35
Video: PAL 16:9 (720x576) VBR, Auto Letterboxed
Audio:
English (Dolby AC3, 6 ch)
Polish (Dolby AC3, 6 ch)
Russian (Dolby AC3, 6 ch)
Espanol (Dolby AC3, 6 ch)
Subtitles:
Arabic
English
Estonian
Greek
Islenska
Latvian
Lithuanian
Polish
Portugues
Romanian
Russian
Espanol
Turkish
Espanol

VTS_02 :
Play Length: 00:09:45+00:02:05+00:04:17
Video: PAL 16:9 (720x576) VBR, Auto Letterboxed
Audio:
English (Dolby AC3, 6 ch)
Polish (Dolby AC3, 2 ch)
Russian (Dolby AC3, 6 ch)
Subtitles:
Arabic
English
Estonian
Greek
Islenska
Latvian
Lithuanian
Polish
Portugues
Romanian
Russian
Espanol
Turkish
Espanol

VTS_03 :
Play Length: 00:00:23
Video: PAL 16:9 (720x576) VBR, Auto Letterboxed
Audio:
English (Dolby AC3, 6 ch)

VTS_04 :
Play Length: 00:00:39+00:01:02
Video: PAL 16:9 (720x576) VBR, Auto Letterboxed
Audio:
English (Dolby AC3, 2 ch)
Not specified (Dolby AC3, 6 ch)
Not specified (Dolby AC3, 6 ch)
Espanol (Dolby AC3, 2 ch)
Subtitles:
Arabic
Not specified
Estonian
Greek
Islenska
Latvian
Lithuanian
Polish
Portugues
Romanian
Russian
Espanol
Turkish

Свернуть

"MediaInfo"
Общее
Полное имя : G:\Новинки 2011\Marli.i.ja.2.2011.DVD9\VIDEO_TS\VTS_01_1.VOB
Формат : MPEG-PS
Размер файла : 1024 Мбайт
Продолжительность : 18 м.
Общий поток : 7672 Кбит/сек

Видео
Идентификатор : 224 (0xE0)
Формат : MPEG Video
Версия формата : Version 2
Профиль формата : Main@Main
Параметр BVOP формата : Да
Параметр матрицы формата : Выборочная
Параметр GOP формата : M=2, N=12
Продолжительность : 18 м.
Вид битрейта : Переменный
Битрейт : 5919 Кбит/сек
Максимальный битрейт : 7500 Кбит/сек
Ширина : 720 пикселей
Высота : 576 пикселей
Соотношение сторон : 16:9
Частота кадров : 25,000 кадров/сек
Стандарт вещания : PAL
Цветовое пространство : YUV
Субдискретизация насыщенности : 4:2:0
Битовая глубина : 8 бит
Тип развёртки : Чересстрочная
Порядок развёртки : Верхнее поле первое
Метод сжатия : С потерями
Бит/(Пиксели*Кадры) : 0.571
Размер потока : 790 Мбайт (77%)

Аудио #1
Идентификатор : 189 (0xBD)-128 (0x80)
Формат : AC-3
Формат/Информация : Audio Coding 3
Расширение режима : CM (complete main)
Режим смешивания : DVD-Video
Продолжительность : 18 м.
Вид битрейта : Постоянный
Битрейт : 448 Кбит/сек
Каналы : 6 каналов
Расположение каналов : Front: L C R, Side: L R, LFE
Частота : 48,0 КГц
Битовая глубина : 16 бит
Метод сжатия : С потерями
Размер потока : 59,8 Мбайт (6%)

Аудио #2
Идентификатор : 189 (0xBD)-129 (0x81)
Формат : AC-3
Формат/Информация : Audio Coding 3
Расширение режима : CM (complete main)
Режим смешивания : DVD-Video
Продолжительность : 18 м.
Вид битрейта : Постоянный
Битрейт : 384 Кбит/сек
Каналы : 6 каналов
Расположение каналов : Front: L C R, Side: L R, LFE
Частота : 48,0 КГц
Битовая глубина : 16 бит
Метод сжатия : С потерями
Размер потока : 51,2 Мбайт (5%)

Аудио #3
Идентификатор : 189 (0xBD)-130 (0x82)
Формат : AC-3
Формат/Информация : Audio Coding 3
Расширение режима : CM (complete main)
Режим смешивания : DVD-Video
Продолжительность : 18 м.
Вид битрейта : Постоянный
Битрейт : 384 Кбит/сек
Каналы : 6 каналов
Расположение каналов : Front: L C R, Side: L R, LFE
Частота : 48,0 КГц
Битовая глубина : 16 бит
Метод сжатия : С потерями
Размер потока : 51,2 Мбайт (5%)

Аудио #4
Идентификатор : 189 (0xBD)-131 (0x83)
Формат : AC-3
Формат/Информация : Audio Coding 3
Расширение режима : CM (complete main)
Режим смешивания : DVD-Video
Продолжительность : 18 м.
Вид битрейта : Постоянный
Битрейт : 384 Кбит/сек
Каналы : 6 каналов
Расположение каналов : Front: L C R, Side: L R, LFE
Частота : 48,0 КГц
Битовая глубина : 16 бит
Метод сжатия : С потерями
Размер потока : 51,2 Мбайт (5%)
Свернуть


Скриншоты
Скриншоты меню
Изображение
Изображение
Изображение
Изображение
Изображение
Изображение
Свернуть
Изображение
Изображение
Изображение
Изображение
Изображение
Изображение
Изображение
Изображение
Свернуть


Изображение
Не в сети
Профиль  
Начать новую темуОтветить на тему  [ 1 сообщение ] 
Вы не можете начинать темы
Вы не можете отвечать на сообщения
Вы не можете редактировать свои сообщения
Вы не можете удалять свои сообщения