Правила форума

  • В этом разделе создание новых тем Запрещено.
  • Для создания новых тем пользуйтесь Корневым разделом DVD и HD фильмы.
Начать новую темуОтветить на тему  [ Сообщений: 3 ] 
Торрент файл
Размер: 4.24 GB • Зарегистрирован: 3 года 5 месяцев • Статус: Проверено
Скачан: 61 раз • Желающих скачать: 0 • Поблагодарили: 24 раза
 Раздают: 0  |  0 KB/s  ]   Качают: 0  |  0 KB/s  ] 
 Полного источника не было 2 месяца 12 дней 
Сообщения
 Добавлено: 2013-06-27 21:30
DVD Release Group
Аватара пользователя
Стаж: 7 лет 1 месяц
Сообщений: 3542
Спасибок: 246749
Лайков: 1016
Мёбиус

Mobius

«Можно играть в политику, играть с деньгами,
с доверием, но только не с любовью»


Изображение


Год выпуска: 2013
Страна: Франция, Бельгия, Люксембург
Жанр: Триллер, драма
Продолжительность: 01:43:55
Перевод: Профессиональный (полное дублирование)
Cубтитры: Нет
Режиссер: Эрик Рошан
В ролях: Жан Дюжарден, Сесиль Де Франс, Тим Рот, Эмили Декьенн, Владимир Меньшов, Алексей Горбунов, Бранка Катич, Максим Виторган, Эрик Вьеллар, Прасанна Пуванараджа
Описание: Жестокий и хладнокровный офицер с мрачным характером и проницательным умом, тайный агент ФСБ по кличке Моисей, ведет дело крупного российского олигарха, которого подозревают в фантастических финансовых махинациях. Кажется, он уже наступил на хвост змеи, но тут в его жизнь врывается страсть. Он, никогда в жизни не знавший нежных чувств, влюбляется в Алису, работающую трейдером в банковской структуре преступного олигарха. Что будет утром, когда окончится горячая любовная ночь?
Изображение Изображение
Дополнительно: Скоро на DVD
Sample:
http://multi-up.com/879356
Качество: DVD5
Формат: DVD Video
Видео кодек: MPEG2
Аудио кодек: AC3
Видео: 720х576 25fps 4578Kbps
Аудио:
Аудио Rus: 48kHz 6ch 384Kbps
Аудио Rus: 48kHz 2ch 192Kbps
"MediaInfo"
Формат : MPEG-PS
Размер файла : 1024 Мбайт
Продолжительность : 27 м.
Режим общего битрейта : Переменный
Общий поток : 5258 Кбит/сек

Видео
Идентификатор : 224 (0xE0)
Формат : MPEG Video
Версия формата : Version 2
Профиль формата : Main@Main
Параметр BVOP формата : Да
Параметр матрицы формата : Выборочная
Продолжительность : 27 м.
Вид битрейта : Переменный
Битрейт : 4578 Кбит/сек
Максимальный битрейт : 9000 Кбит/сек
Ширина : 720 пикселей
Высота : 576 пикселей
Соотношение сторон : 16:9
Частота кадров : 25,000 кадров/сек
Стандарт вещания : PAL
Цветовое пространство : YUV
Субдискретизация насыщенности : 4:2:0
Битовая глубина : 8 бит
Тип развёртки : Прогрессивная
Порядок развёртки : Верхнее поле первое
Метод сжатия : С потерями
Бит/(Пиксели*Кадры) : 0.442
Размер потока : 891 Мбайт (87%)

Аудио #1
Идентификатор : 189 (0xBD)-128 (0x80)
Формат : AC-3
Формат/Информация : Audio Coding 3
Расширение режима : CM (complete main)
Режим смешивания : DVD-Video
Продолжительность : 27 м.
Вид битрейта : Постоянный
Битрейт : 384 Кбит/сек
Каналы : 6 каналов
Расположение каналов : Front: L C R, Side: L R, LFE
Частота : 48,0 КГц
Битовая глубина : 16 бит
Метод сжатия : С потерями
Размер потока : 74,8 Мбайт (7%)

Аудио #2
Идентификатор : 189 (0xBD)-129 (0x81)
Формат : AC-3
Формат/Информация : Audio Coding 3
Расширение режима : CM (complete main)
Режим смешивания : DVD-Video
Продолжительность : 27 м.
Вид битрейта : Постоянный
Битрейт : 192 Кбит/сек
Каналы : 2 канала
Расположение каналов : Front: L R
Частота : 48,0 КГц
Битовая глубина : 16 бит
Метод сжатия : С потерями
Размер потока : 37,4 Мбайт (4%)

Меню
Свернуть

"Скриншоты"
Изображение
Изображение
Изображение
Изображение
Изображение
Изображение
Изображение
Свернуть

Раздача группы:
Изображение
Не в сети
Профиль  
 Добавлено: 2013-06-27 23:25 (спустя 1 час 54 минуты)
Аватара пользователя
Стаж: 7 лет 11 месяцев
Сообщений: 994
Лайков: 73
чё как все вытянуто??
Не в сети
Профиль  
 Добавлено: 2013-06-28 05:07 (спустя 5 часов)
DVD Release Group
Аватара пользователя
Стаж: 7 лет 1 месяц
Сообщений: 3542
Спасибок: 246749
Лайков: 1016
Evil_Knievel
"Почему на скриншотах вытянутые лица или что такое анаморф"
Изначально видео поток на DVD имеет разрешение 720х480 для NTSC и 720x576 для PAL.
Коэффициенты сжатия (Aspect Ratio), то есть отношение ширины изображения к его длине, будут 1,5 и 1,25 соответственно.
Это не совпадает ни с одним из используемых отношений сторон (16:9, 4:3)
Любой поток MPEG-2 (именно в этом формате закодировано видео на DVD) имеет DAR флаг, что есть аббревиатура от Display Aspect Ratio -коэффициент сжатия экрана.
Он обозначает для телевизоров с каким отношением сторон предназначено видео.
Так видео поток с DAR равным 16:9 предназначен для телевизоров или мониторов с отношением сторон 16:9.
Берется кадр с отношением сторон 16:9 и искусственно сжимается по ширине, чтобы попасть в разрешение DVD 720X576.
Затем у видео потока выставляется DAR, равный 16:9.
Этот флаг указывает плееру растянуть изображение, чтобы вернуть ему первоначальные пропорции. Математически это выглядит так, вертикальное разрешение умножается на коэффициент сжатия: 576*16:9=1023,99.
Таким образом плееру надо увеличить ширину картинки до 1024 точек.
Это называется анаморфированное широкоэкранное изображение (Anamorphic widescreen).
Это самое правильное преобразование, так как позволяет максимально использовать вертикальное разрешение экрана.
В таком случае на DVD пишут: адаптировано для широкоформатных телевизоров.
Свернуть
"Специально для Evil_Knievel"
Изображение
Изображение
Изображение
Изображение
Изображение
Изображение
Свернуть
Не в сети
Профиль  
Начать новую темуОтветить на тему  [ Сообщений: 3 ] 
Вы не можете начинать темы
Вы не можете отвечать на сообщения
Вы не можете редактировать свои сообщения
Вы не можете удалять свои сообщения