Правила форума

  • В этом разделе создание новых тем Запрещено.
  • Для создания новых тем пользуйтесь Корневым разделом DVD и HD фильмы.
Начать новую темуОтветить на тему  [ 1 сообщение ] 
Торрент файл
Размер: 3.61 GB • Зарегистрирован: 4 года 6 месяцев • Статус: Проверено
Скачан: 90 раз • Желающих скачать: 0 • Поблагодарили: 17 раз
 Раздают: 0  |  0 KB/s  ]   Качают: 0  |  0 KB/s  ] 
 Полного источника не было 15 дней 
Сообщения
 Добавлено: 2012-05-23 23:24
Руководитель релиз-группы
Аватара пользователя
Стаж: 7 лет 4 месяца
Возраст: 31
Сообщений: 3407
Спасибок: 46729
Лайков: 5
Изображение

Между
Twixt


Год выпуска: 2011
Страна: США
Слоган: «Он отведёт тебя в мир духов и вампиров»
Жанр: ужасы, фэнтези, триллер
Продолжительность: 01:24:31
Перевод: Профессиональный (полное дублирование)
Режиссер: Френсис Форд Коппола
Сценарий: Френсис Форд Коппола
Продюсер: Френсис Форд Коппола, Джош Гриффит, Джим Хэйс
Оператор: Михай Малаймер мл.
Композитор: Дэн Дикон, Освальдо Голихов
В ролях: Вэл Килмер, Брюс Дерн, Эль Фаннинг, Бен Чаплин, Энтони Фуско, Олден Эйренрайк, Дэвид Пэймер, Джоэнн Уэлли, Дон Новелло, Райан Симпкинс
Бюджет: $7 000 000
Описание: Потерявший вдохновение писатель приезжает в захолустный городок, где пытается разгадать серию загадочных убийств. Во сне ему с завидным упорством является призрак окровавленной девочки Ви, которая пытается сообщить ему страшную тайну. Возможно, распутав цепь странных событий, писатель сможет, наконец, преодолеть кризис и создать новую книгу - о вампирах, потустороннем мире и легендарном Эдгаре Аллане По.
Изображение
Релиз: Изображение Раздача группы: Изображение
Качество: DVD5 (сжатый)
Формат: DVD Video
Видео: MPEG2; PAL 16:9 (720x576)
Аудио #1: Dolby AC3, 6 ch, 384 Kbps Russian
Аудио #2: Dolby AC3, 2 ch, 192 Kbps Russian
Субтитры: русские
Дополнительная информация :
Исходник : DVD9 (6.85 Гб - диск с фильмом) [лицензия, PAL 16:9]
Убрано : 3D версия
Сжатие фильма : нет
Изображение
использовались программы
    DVDRemakePro
    Работоспособность проверена на софтовом плеере Windows Media и бытовом LG
Свернуть
DVDInfo
    Title: Mezhdu_2011_DVD5.[R.G.Daredevil]
    Size: 3.61 Gb ( 3 785 326,00 KBytes ) - DVD-5
    Enabled regions: 1, 2, 3, 4, 5, 6, 7, 8

    VTS_01 :
    Play Length: 00:00:00+01:24:31+{00:00:00}+{00:00:00}+00:00:09+{00:00:00}
    Video: PAL 16:9 (720x576) VBR, Auto Letterboxed
    Audio:
    Russian (Dolby AC3, 6 ch)
    Russian (Dolby AC3, 2 ch)
    Subtitles:
    Russian

    VTS_02 :
    Play Length: 00:00:00+00:00:05+00:00:13
    Video: PAL 16:9 (720x576) VBR, Auto Letterboxed
    Audio:
    Russian (Dolby AC3, 6 ch)

    VTS_03 :
    Play Length: 00:00:00+00:00:11+{00:00:00}
    Video: PAL 16:9 (720x576) VBR, Auto Letterboxed
    Audio:
    Russian (Dolby AC3, 2 ch)

    VTS_04 :
    Play Length: 00:00:00+00:00:16+{00:00:00}
    Video: PAL 4:3 (720x576) VBR
    Audio:
    Russian (Dolby AC3, 2 ch)

    VTS_05 :
    Play Length: 00:00:00+00:00:53+{00:00:00}
    Video: PAL 16:9 (720x576) VBR, Auto Letterboxed
    Audio:
    Russian (Dolby AC3, 2 ch)

    VTS_06 :
    Play Length: 00:00:00+00:07:14
    Video: PAL 16:9 (720x576) VBR, Auto Letterboxed
    Audio:
    Russian (Dolby AC3, 2 ch)
Свернуть
mediainfo
    Формат : MPEG-PS
    Размер файла : 1024 Мбайт
    Продолжительность : 26 м.
    Режим общего битрейта : Переменный
    Общий поток : 5461 Кбит/сек
    Библиотека кодирования : encoded by TMPGEnc (ver. 2.524.63.181)

    Видео
    Идентификатор : 224 (0xE0)
    Формат : MPEG Video
    Версия формата : Version 2
    Профиль формата : Main@Main
    Параметр BVOP формата : Да
    Параметр матрицы формата : Выборочная
    Продолжительность : 26 м.
    Вид битрейта : Переменный
    Битрейт : 4777 Кбит/сек
    Ширина : 720 пикселей
    Высота : 576 пикселей
    Соотношение сторон : 16:9
    Частота кадров : 25,000 кадров/сек
    Стандарт вещания : PAL
    Цветовое пространство : YUV
    Субдискретизация насыщенности : 4:2:0
    Битовая глубина : 8 бит
    Метод сжатия : С потерями
    Бит/(Пиксели*Кадры) : 0.461
    Размер потока : 896 Мбайт (87%)
    Библиотека кодирования : TMPGEnc 2.524.63.181

    Аудио #1
    Идентификатор : 189 (0xBD)-128 (0x80)
    Формат : AC-3
    Формат/Информация : Audio Coding 3
    Расширение режима : CM (complete main)
    Режим смешивания : DVD-Video
    Продолжительность : 26 м.
    Вид битрейта : Постоянный
    Битрейт : 384 Кбит/сек
    Каналы : 6 каналов
    Расположение каналов : Front: L C R, Side: L R, LFE
    Частота : 48,0 КГц
    Битовая глубина : 16 бит
    Метод сжатия : С потерями
    Задержка видео : 6 мс.
    Размер потока : 72,0 Мбайт (7%)

    Аудио #2
    Идентификатор : 189 (0xBD)-129 (0x81)
    Формат : AC-3
    Формат/Информация : Audio Coding 3
    Расширение режима : CM (complete main)
    Режим смешивания : DVD-Video
    Продолжительность : 26 м.
    Вид битрейта : Постоянный
    Битрейт : 192 Кбит/сек
    Каналы : 2 канала
    Расположение каналов : Front: L R
    Частота : 48,0 КГц
    Битовая глубина : 16 бит
    Метод сжатия : С потерями
    Задержка видео : 6 мс.
    Размер потока : 36,0 Мбайт (4%)

    Текст
    Идентификатор : 189 (0xBD)-32 (0x20)
    Формат : RLE
    Формат/Информация : Run-length encoding
    Режим смешивания : DVD-Video

    Меню
Свернуть
Знаете ли Вы, что...
  • Фильм был снят за 7 недель в 2010/2011 годах в пределах 70 миль от дома Фрэнсиса Копполы в Северной Калифорнии.
  • Сцены в старом отеле Чикеринг и в таверне снимались в историческом курорте Этна Спрингс в Папской долине.
Свернуть
Скриншоты

меню
Изображение
Изображение
Изображение
Свернуть
Изображение
Изображение
Изображение
Изображение
Свернуть
Не в сети
Профиль  
Начать новую темуОтветить на тему  [ 1 сообщение ] 
Вы не можете начинать темы
Вы не можете отвечать на сообщения
Вы не можете редактировать свои сообщения
Вы не можете удалять свои сообщения