Правила форума

  • В этом разделе создание новых тем Запрещено.
  • Для создания новых тем пользуйтесь Корневым разделом DVD и HD фильмы.
Начать новую темуОтветить на тему  [ Сообщений: 9 ] 
Торрент файл
Размер: 4.37 GB • Зарегистрирован: 5 лет 1 месяц • Статус: Проверено
Скачан: 108 раз • Желающих скачать: 0 • Поблагодарили: 13 раз
 Раздают: 0  |  0 KB/s  ]   Качают: 0  |  0 KB/s  ] 
 Полного источника не было 2 года 9 месяцев 
Сообщения
 Добавлено: 2011-11-06 02:59
Руководитель релиз-группы
Аватара пользователя
Стаж: 7 лет 4 месяца
Возраст: 31
Сообщений: 3407
Спасибок: 46729
Лайков: 5
Изображение

Меланхолия
Melancholia


Год выпуска: 2011
Страна: Германия, Дания, Швеция, Франция
Слоган: «Enjoy it while it lasts»
Жанр: фантастика, драма
Продолжительность: 02:09:53
Перевод: Профессиональный (многоголосый, закадровый)
Режиссер: Ларс фон Триер
Сценарий: Ларс фон Триер
Продюсер: Луиз Вест, Мета Луиза Фольдагер, Беттина Брокемпер
Оператор: Мануэль Альберто Кларо
В ролях: Кирстен Данст, Шарлотта Генсбур, Кифер Сазерленд, Шарлотта Рэмплинг, Джон Хёрт, Александр Скарсгард, Стеллан Скарсгард, Брэйди Корбет, Удо Кир, Джеймс Кэгнард.
Бюджет: $7 400 000
Сборы в мире: $8 600 000
Описание: Свадебная вечеринка оборачивается катастрофой вселенского масштаба: обнаруживается, что на Землю надвигается планета под названием Меланхолия. С каждым часом она все ближе, и шансов на выживание у человечества все меньше...
Изображение
MPAA: Изображение
Релиз: Изображение Раздача группы: Изображение
Качество: DVD5 (сжатый)
Формат: DVD Video
Видео: MPEG2; PAL 16:9 (720x576)
Аудио #1: Dolby AC3, 6 ch, 448 Kbps Russian
Аудио #2: Dolby AC3, 6 ch, 448 Kbps English
Субтитры: русские
Дополнительная информация :
Исходник : DVD9 (7.25 Гб) [лицензия, PAL 16:9]
Убрано : допы, реклама, заставки, предупреждения
Сжатие фильма : 40.5 % сжатия (без учета ручного перераспределения битрейта, за счет большего сжатия конечных титров)
использовались программы
    DVDRemakePro
    Photoshop
    MuxMan
    Rebuilder и CCE (Cinema Craft Encoder), 5 проходов
    Работоспособность проверена на софтовом плеере Windows Media и бытовом LG
Свернуть
DVDInfo
    Title: Melanholiya_2011_DVD5.[R.G.Daredevil]
    Size: 4.37 Gb ( 4 583 512,00 KBytes ) - DVD-5
    Enabled regions: 1, 2, 3, 4, 5, 6, 7, 8

    VTS_01 :
    Play Length: 00:00:00
    Video: PAL 4:3 (720x576) VBR
    Audio:
    Not specified (Dolby AC3, 2 ch)

    VTS_02 :
    Play Length: 00:00:00
    Video: PAL 16:9 (720x576) VBR, Auto Letterboxed
    Audio:
    Not specified (Dolby AC3, 2 ch)

    VTS_03 :
    Play Length: 00:00:00
    Video: PAL 16:9 (720x576) VBR, Auto Letterboxed
    Audio:
    Not specified (Dolby AC3, 2 ch)
    Not specified (Dolby AC3, 2 ch)
    Not specified (Dolby AC3, 2 ch)

    VTS_04 :
    Play Length: 02:09:53
    Video: PAL 16:9 (720x576) VBR, Auto Letterboxed
    Audio:
    Russian (Dolby AC3, 6 ch)
    English (Dolby AC3, 6 ch)
    Subtitles:
    Russian

    VTS_05 :
    Play Length: 00:00:00
    Video: PAL 16:9 (720x576) VBR, Auto Letterboxed
    Audio:
    Not specified (Dolby AC3, 2 ch)

    VTS_06 :
    Play Length: 00:00:00
    Video: PAL 16:9 (720x576) VBR, Auto Letterboxed
    Audio:
    Not specified (Dolby AC3, 2 ch)

    VTS_07 :
    Play Length: 00:00:00
    Video: PAL 16:9 (720x576) VBR, Auto Letterboxed
    Audio:
    Not specified (Dolby AC3, 2 ch)

    VTS_08 :
    Play Length: 00:00:00
    Video: PAL 16:9 (720x576) VBR, Auto Letterboxed
    Audio:
    Not specified (Dolby AC3, 2 ch)

    VTS_09 :
    Play Length: 00:00:00
    Video: PAL 16:9 (720x576) VBR, Auto Letterboxed
    Audio:
    Not specified (Dolby AC3, 2 ch)

    VTS_10 :
    Play Length: 00:00:00
    Video: PAL 16:9 (720x576) VBR, Auto Letterboxed
    Audio:
    Not specified (Dolby AC3, 2 ch)

    VTS_11 :
    Play Length: 00:00:00
    Video: PAL 16:9 (720x576) VBR, Auto Letterboxed
    Audio:
    Not specified (Dolby AC3, 2 ch)

    VTS_12 :
    Play Length: 00:00:00
    Video: PAL 16:9 (720x576) VBR, Auto Letterboxed
    Audio:
    Not specified (Dolby AC3, 2 ch)

    VTS_13 :
    Play Length: 00:00:00
    Video: PAL 16:9 (720x576) VBR, Auto Letterboxed
    Audio:
    Not specified (Dolby AC3, 2 ch)
Свернуть
mediainfo
    Формат : MPEG-PS
    Размер файла : 1024 Мбайт
    Продолжительность : 29 м.
    Режим общего битрейта : Переменный
    Общий поток : 4813 Кбит/сек

    Видео
    Идентификатор : 224 (0xE0)
    Формат : MPEG Video
    Версия формата : Version 2
    Профиль формата : Main@Main
    Параметр BVOP формата : Да
    Параметр матрицы формата : Выборочная
    Продолжительность : 29 м.
    Вид битрейта : Переменный
    Битрейт : 3821 Кбит/сек
    Максимальный битрейт : 6349 Кбит/сек
    Ширина : 720 пикселей
    Высота : 576 пикселей
    Соотношение сторон : 16:9
    Частота кадров : 25,000 кадров/сек
    Стандарт вещания : PAL
    Цветовое пространство : YUV
    Субдискретизация насыщенности : 4:2:0
    Битовая глубина : 8 бит
    Тип развёртки : Прогрессивная
    Порядок развёртки : Нижнее поле первое
    Метод сжатия : С потерями
    Бит/(Пиксели*Кадры) : 0.369
    Размер потока : 813 Мбайт (79%)

    Аудио #1
    Идентификатор : 189 (0xBD)-128 (0x80)
    Формат : AC-3
    Формат/Информация : Audio Coding 3
    Расширение режима : CM (complete main)
    Режим смешивания : DVD-Video
    Продолжительность : 29 м.
    Вид битрейта : Постоянный
    Битрейт : 448 Кбит/сек
    Каналы : 6 каналов
    Расположение каналов : Front: L C R, Side: L R, LFE
    Частота : 48,0 КГц
    Битовая глубина : 16 бит
    Метод сжатия : С потерями
    Размер потока : 95,3 Мбайт (9%)

    Аудио #2
    Идентификатор : 189 (0xBD)-129 (0x81)
    Формат : AC-3
    Формат/Информация : Audio Coding 3
    Расширение режима : CM (complete main)
    Режим смешивания : DVD-Video
    Продолжительность : 29 м.
    Вид битрейта : Постоянный
    Битрейт : 448 Кбит/сек
    Каналы : 6 каналов
    Расположение каналов : Front: L C R, Side: L R, LFE
    Частота : 48,0 КГц
    Битовая глубина : 16 бит
    Метод сжатия : С потерями
    Размер потока : 95,3 Мбайт (9%)

    Меню
Свернуть
Знаете ли Вы, что...
  • Перед премьерой фильма в Каннах, на пресс-конференции, произошел очередной скандал с участием Ларса Фон Триера. Режиссер поддался на провокацию со стороны журналиста, намекнувшего о немецком происхождении маэстро, на что Фон Триер не сдержался и не совсем корректно отозвался о евреях и Гитлере, позже принеся официальные извинения.
  • Изначально роль Жюстин должна была исполнять Пенелопа Крус. Но она выбыла из процесса из-за участия в съемках фильма «Пираты Карибского Моря: На странных берегах».
Свернуть
Скриншоты

меню
Изображение
Изображение
Изображение
Свернуть
Изображение
Изображение
Изображение
Изображение
Свернуть
Не в сети
Профиль  
 Добавлено: 2011-11-06 07:30 (спустя 4 часа)
Стаж: 6 лет 3 месяца
Сообщений: 493
Лайков: 28
Гадость.
Не в сети
Профиль  
 Добавлено: 2011-11-06 08:24 (спустя 53 минуты)
Аватара пользователя
Стаж: 7 лет 5 месяцев
Сообщений: 541
Спасибок: 2661
Лайков: 2
А BD когда? Неизвестно?
Не в сети
Профиль  
 Добавлено: 2011-11-06 08:51 (спустя 27 минут)
Руководитель релиз-группы
Аватара пользователя
Стаж: 7 лет 4 месяца
Возраст: 31
Сообщений: 3407
Спасибок: 46729
Лайков: 5
Mr. Справедливость
17 ноября 2011, «Новый Диск»
Не в сети
Профиль  
 Добавлено: 2011-11-06 11:53 (спустя 3 часа)
Кинокомментатор
Аватара пользователя
Стаж: 9 лет 1 месяц
Сообщений: 1332
Лайков: 54
как кино то? смотрибельно? интересно?
_________________
Я ВКонтакте
Не в сети
Профиль  
 Добавлено: 2011-11-06 12:02 (спустя 8 минут)
Стаж: 6 лет 3 месяца
Сообщений: 493
Лайков: 28

Bronks:

как кино то? смотрибельно? интересно?
Cкрытый текст
Первая часть - про ТП, вторая - "мы все умрем!!!". А в конце пришел лесник и всех выгнал полярный лис. Конец. Снимал эстетствующий педе... фон Триппер! :-D

Да, чуть не забыл - несмотря на зашкаливающее количество гламура и звёздные сиськи, смотреть на расплывшееся тело Кирстен Данст - не вставляет. Аминь!
Свернуть
Не в сети
Профиль  
 Добавлено: 2011-11-06 15:56 (спустя 3 часа)
Аватара пользователя
Стаж: 5 лет 9 месяцев
Возраст: 31
Сообщений: 21
Спасибок: 2
scalpellino
Фильмы Ларса фон Триера не для тебя.
Не в сети
Профиль  
 Добавлено: 2011-11-06 19:09 (спустя 3 часа)
Стаж: 6 лет 1 месяц
Сообщений: 84
А почему DVD в разделе HD???
Не в сети
Профиль  
 Добавлено: 2011-11-06 20:53 (спустя 1 час 43 минуты)
Аватара пользователя
Стаж: 5 лет 9 месяцев
Возраст: 31
Сообщений: 21
Спасибок: 2
Liporik
для особо одарённых :men:
Не в сети
Профиль  
Начать новую темуОтветить на тему  [ Сообщений: 9 ] 
Вы не можете начинать темы
Вы не можете отвечать на сообщения
Вы не можете редактировать свои сообщения
Вы не можете удалять свои сообщения