Правила форума

  • В этом разделе создание новых тем Запрещено.
  • Для создания новых тем пользуйтесь Корневым разделом DVD и HD фильмы.
Начать новую темуОтветить на тему  [ Сообщений: 2 ] 
Торрент файл
Размер: 7.53 GB • Зарегистрирован: 5 лет 6 месяцев • Статус: Проверено
Скачан: 58 раз • Желающих скачать: 0 • Поблагодарили: 6 раз
 Раздают: 0  |  0 KB/s  ]   Качают: 0  |  0 KB/s  ] 
 Полного источника не было 2 года 10 месяцев 
Сообщения
 Добавлено: 2011-05-26 12:55
Top-releaser
Аватара пользователя
Стаж: 7 лет 3 месяца
Возраст: 25
Сообщений: 1036
Спасибок: 2694
Лайков: 9
Месть / Haevnen

Изображение



Год выхода: 2010
Страна: Дания, Швеция

Жанр: триллер, драма
Продолжительность: 01:53:04
Перевод: Профессиональное (многоголосое) [лицензия]

Режиссер: Сюзанна Бир
Сценарий: Андерс Томас Йенсен
Продюсер: Сиссе Граум Олсен, Карен Бентзон, Петер Ольбек Енсен
Оператор: Мортен Сёборг
Композитор: Йохан Сёдерквист

В ролях: Микаэль Персбрандт, Трин Дюрхольм, Ульрих Томсен, Вильям Йонк Нильсен, Маркус Рюгард, Уил Джонсон, Эдди Кимани, Эмили Мглая, Гэбриэл Мули, Джун Ваверу, Мэри Хуну Моат

Описание: Сорокалетний Антон возвращается в родную Данию, много лет проработав в африканском лагере для беженцев. Долгие годы среди чужого горя научили его никогда не отвечать насилием на насилие. Даже когда местный автомеханик беспричинно избивает Антона, тот сдерживает гнев. Кажется, что конфликт исчерпан, но тут его сын Элиас вместе со своим другом Кристианом решают отомстить за отца.

KinoPoisk.ru: 7.42
IMDb.com: 7.7/10

Pаздача группы:Изображение

Качество: DVD9
Формат: DVD Video

Видео: MPEG2 Video 720x576 (16:9) 25.00fps 8500kbps
Аудио 1: [Rus] Dolby AC3 48000Hz 6ch 384kbps
Аудио 2: [Dan] Dolby AC3 48000Hz 6ch 384kbps
Аудио 3: [Rus] Dolby AC3 48000Hz 2ch 192 Kbps
Subtitle: [Rus] RLE

MediaInfo
General
Complete name : H:\ReLease\Mest DVD-9\VIDEO_TS\VTS_01_2.VOB
Format : MPEG-PS
File size : 1 024 MiB
Duration : 20mn 38s
Overall bit rate : 6 935 Kbps

Video
ID : 224 (0xE0)
Format : MPEG Video
Format version : Version 2
Format profile : Main@Main
Format settings, BVOP : Yes
Format settings, Matrix : Default
Duration : 20mn 38s
Bit rate mode : Variable
Bit rate : 5 837 Kbps
Nominal bit rate : 8 500 Kbps
Width : 720 pixels
Height : 576 pixels
Display aspect ratio : 16:9
Frame rate : 25.000 fps
Standard : PAL
Color space : YUV
Chroma subsampling : 4:2:0
Bit depth : 8 bits
Scan type : Interlaced
Scan order : Top Field First
Compression mode : Lossy
Bits/(Pixel*Frame) : 0.563
Stream size : 862 MiB (84%)

Audio #1
ID : 189 (0xBD)-128 (0x80)
Format : AC-3
Format/Info : Audio Coding 3
Mode extension : CM (complete main)
Muxing mode : DVD-Video
Duration : 20mn 38s
Bit rate mode : Constant
Bit rate : 384 Kbps
Channel(s) : 6 channels
Channel positions : Front: L C R, Side: L R, LFE
Sampling rate : 48.0 KHz
Bit depth : 16 bits
Compression mode : Lossy
Delay relative to video : -368ms
Stream size : 56.7 MiB (6%)

Audio #2
ID : 189 (0xBD)-129 (0x81)
Format : AC-3
Format/Info : Audio Coding 3
Mode extension : CM (complete main)
Muxing mode : DVD-Video
Duration : 20mn 38s
Bit rate mode : Constant
Bit rate : 384 Kbps
Channel(s) : 6 channels
Channel positions : Front: L C R, Side: L R, LFE
Sampling rate : 48.0 KHz
Bit depth : 16 bits
Compression mode : Lossy
Delay relative to video : -368ms
Stream size : 56.7 MiB (6%)

Audio #3
ID : 189 (0xBD)-130 (0x82)
Format : AC-3
Format/Info : Audio Coding 3
Mode extension : CM (complete main)
Muxing mode : DVD-Video
Duration : 20mn 38s
Bit rate mode : Constant
Bit rate : 192 Kbps
Channel(s) : 2 channels
Channel positions : Front: L R
Sampling rate : 48.0 KHz
Bit depth : 16 bits
Compression mode : Lossy
Delay relative to video : -304ms
Stream size : 28.4 MiB (3%)

Text
ID : 189 (0xBD)-32 (0x20)
Format : RLE
Format/Info : Run-length encoding
Muxing mode : DVD-Video
Delay relative to video : 200ms

Menu

Свернуть
Скриншоты
Изображение
Изображение
Изображение
Изображение
Изображение
Свернуть
Не в сети
Профиль  
 Добавлено: 2011-06-17 11:19 (спустя 21 день)
Аватара пользователя
Стаж: 8 лет 3 месяца
Возраст: 43
Сообщений: 3290
Спасибок: 21012
Лайков: 3
отлепляем :(
_________________
Изображение
Не в сети
Профиль  
Начать новую темуОтветить на тему  [ Сообщений: 2 ] 
Вы не можете начинать темы
Вы не можете отвечать на сообщения
Вы не можете редактировать свои сообщения
Вы не можете удалять свои сообщения