Правила форума

  • В этом разделе создание новых тем Запрещено.
  • Для создания новых тем пользуйтесь Корневым разделом DVD и HD фильмы.
Начать новую темуОтветить на тему  [ Сообщений: 2 ] 
Торрент файл
Размер: 5.31 GB • Зарегистрирован: 4 года 9 месяцев • Статус: Проверено
Скачан: 34 раза • Желающих скачать: 0 • Поблагодарили: 6 раз
 Раздают: 0  |  0 KB/s  ]   Качают: 0  |  0 KB/s  ] 
 Полного источника не было 9 месяцев 
Сообщения
 Добавлено: 2012-02-27 23:46
Аватара пользователя
Стаж: 5 лет 5 месяцев
Возраст: 30
Сообщений: 353
Спасибок: 7455
МЫ. Верим в любовь / W.E.

Изображение


Год выпуска: 2011
Страна: Великобритания (Lip Sync Post)
Слоган: «Самая красивая история XX века»
Жанр: драма, мелодрама
Продолжительность: 01:53:51
Перевод: Профессиональный (многоголосый закадровый)
Субтитры: Нет

Режиссёр: Мадонна / Madonna
Сценарист: Алек Кешишьян, Мадонна
Продюсер: Крис Тикье, Колин Вэйнс, Скотт Франклин
Оператор: Хаген Богданский
Композитор: Абель Корженевски
В ролях: Эбби Корниш, Натали Дормер, Кэти МакГрат, Аннабелль Уоллис, Оскар Айзек, Андреа Райзборо, Джеймс Д’Арси, Ричард Койл, Лоуренс Фокс, Джеймс Фокс

Описание: Роман короля Великобритании Эдуарда VIII и американки Уоллис Симпсон взбудоражил общественность. На момент знакомства с принцем Эдуардом Симпсон была замужем, а король, если хотел жениться на ней, должен был отречься от престола. Но даже это не помешало их любви.

Доп.информация: нет
Рейтинг MPAA: Рейтинг R (Подростки до 17 лет допускаются на фильм только в сопровождении одного из родителей)
Мировая премьера: 1 сентября 2011
Премьера в России: 2 февраля 2012, «Top Film Distribution»
Бюджет: $15 000 000
Кассовые сборы: + $284 984 = $553 284

Изображение Изображение Изображение

Качество: DVD9 R5
Формат: DVD Video
Видео кодек: MPEG2
Аудио кодек: AC3 (Dolby Digital)
Видео: PAL 16:9 (720x576(0.585)) MPEG Video, 25,000 кадр/сек, 6064 Кбит/сек
Аудио #1: Russian (Dolby AC3, 6 ch) 384 Кбит/сек, 48,0 КГц [Профессиональный (многоголосый закадровый)]
Субтитры: Нет
"DVDInfo"
Title:
Size: 5.31 Gb ( 5 566 338 KBytes ) - DVD-9
Enabled regions: 1, 2, 3, 4, 5, 6, 7, 8

VTS_01 :
Play Length: 00:00:08
Video: PAL 4:3 (720x576) VBR

VTS_02 :
Play Length: 01:53:51
Video: PAL 16:9 (720x576) VBR, Auto Pan&Scan
Audio:
Russian (Dolby AC3, 6 ch)

VTS_03 :
Play Length: 00:00:30
Video: PAL 4:3 (720x576) VBR
Audio:
English (Dolby AC3, 2 ch)

Menu Video:
PAL 4:3 (720x576) VBR
Auto Pan&Scan, Auto Letterboxed
Menu Russian Language Unit :
Root Menu
Chapter (PTT) Menu
Свернуть

"MediaInfo"
Общее
Полное имя : G:\Новинки 2012\MY.Verim.v.ljubov.2011.DVD9\VIDEO_TS\VTS_02_3.VOB
Формат : MPEG-PS
Размер файла : 1024 Мбайт
Продолжительность : 21 м.
Режим общего битрейта : Переменный
Общий поток : 6579 Кбит/сек

Видео
Идентификатор : 224 (0xE0)
Формат : MPEG Video
Версия формата : Version 2
Профиль формата : Main@Main
Параметр BVOP формата : Да
Параметр матрицы формата : Выборочная
Параметр GOP формата : M=3, N=15
Продолжительность : 21 м.
Вид битрейта : Переменный
Битрейт : 6064 Кбит/сек
Максимальный битрейт : 8000 Кбит/сек
Ширина : 720 пикселей
Высота : 576 пикселей
Соотношение сторон : 16:9
Частота кадров : 25,000 кадров/сек
Стандарт вещания : PAL
Цветовое пространство : YUV
Субдискретизация насыщенности : 4:2:0
Битовая глубина : 8 бит
Тип развёртки : Чересстрочная
Порядок развёртки : Верхнее поле первое
Метод сжатия : С потерями
Бит/(Пиксели*Кадры) : 0.585
Размер потока : 944 Мбайт (92%)

Аудио
Идентификатор : 189 (0xBD)-128 (0x80)
Формат : AC-3
Формат/Информация : Audio Coding 3
Расширение режима : CM (complete main)
Режим смешивания : DVD-Video
Продолжительность : 21 м.
Вид битрейта : Постоянный
Битрейт : 384 Кбит/сек
Каналы : 6 каналов
Расположение каналов : Front: L C R, Side: L R, LFE
Частота : 48,0 КГц
Битовая глубина : 16 бит
Метод сжатия : С потерями
Задержка видео : -320 мс.
Размер потока : 59,8 Мбайт (6%)

Свернуть

Скриншоты
Скриншоты меню
Изображение
Изображение
Свернуть
Изображение
Изображение
Изображение
Изображение
Изображение
Изображение
Изображение
Изображение
Свернуть

Знаете ли Вы, что...
Главной кандидатурой на роль Уолли Симпсон долгое время была Вера Фармига. Актриса выбыла из проекта по причине беременности, и её заменила Андреа Райзборо.
Роль короля Эдуарда VIII первоначальна была предложена Юэну МакГрегору. После того как тот выбыл из проекта, его заменил Джеймс Д’Арси.
Сославшись на творческие разногласия с Мадонной, проект на стадии подготовки к съёмкам покинули один из продюсеров Дэвид Парфитт и директор по кастингу Нина Голд.
Роль леди Тельмы Фёрнесс первоначально получила Марго Стилли. Актриса выбыла из проекта из-за разногласий с Мадонной.
Сыгравшие в фильме отца и сына Георга V и Георга VI (Принц Альберт) Джеймс и Лоренс Фокс также являются отцом и сыном.
Художник по костюмам Ариана Филлипс начала свою работу за год до начала съёмок. Гардероб Уолли Симпсон в фильме насчитывал более 80 костюмов, многие из которых были изготовлены самими престижными европейскими домами мод. Помимо полностью новых моделей использовались также сохранившиеся костюмы того периода, а также специально изготовленные по найденным в архивах меркам и образцам. Всего было изготовлено 60 костюмов для Уолли Симпсон и около 30 для Эдварда.
Во время съёмок было использовано принадлежащее находящемуся в Шотландии Национальному Музею костюмов свадебное платье работы известного дизайнера Майкла О’Коннора. Руководство музея с большим энтузиазмом отреагировало на запрос создателей фильма. Ранее это же платье было использовано при съёмках телевизионной ленты «Уоллис и Эдуард» (2005). Там его носила Джоэли Ричардсон.
Для воссоздания значительной ювелирной коллекции Уолли Симпсон была привлечена знаменитая фирма Картье. Её стараниями были воссозданы десять ювелирных украшений, включая изумрудное обручальное кольцо. Также создатели фильма смогли использовать часть сохранившихся реальных украшений Уолли Симпсон. Они находились в архивах крупной французской ювелирной фирмы Ван Клиф и Арпельс и на съёмочной площадке постоянно сопровождались мощной охраной в лице её секьюрити.
Один из изготовленных фирмой Картье браслетов соскочил с руки Андреа Райзборо и был утерян в море. Для него тут же была заказана замена.
Во время съёмок были также использованы несколько ювелирных украшений, принадлежащих лично Мадонне. В сцене, когда Уолли опрыскивает духами цветы, её черные и белые жемчужные и бриллиантовые серёжки как раз принадлежали Мадонне.
В качестве подготовки к роли Мадонна попросила Джеймса Д’Арси научиться балетным танцам, верховой езде и игре на волынке.
Купившая права на фильм в США Weinstein Company продвигала его как режиссёрский дебют Мадонны. Вышедшая в 2008 году кинолента «Грязь и мудрость» несмотря на продолжительность в 81 минуту была отнесена американским прокатчиком к разряду короткометражек.
До самого последнего момента Мадонна надеялась, что премьера фильма сможет состояться на Каннском кинофестивале 2011 года. Однако фильм оказался не готов к назначенному сроку. Прибывшим на фестиваль прокатчикам и дистрибьюторам были предложены лишь специально отобранные отрывки из картины.
Получившая Золотой Глобус песня из фильма «Masterpiece» не удовлетворяла критериям Американской Киноакадемии и потому не могла быть номинирована на Оскар. Она начинается примерно через минуту после появления первых титров, тогда как согласно правилам крайним моментом является как раз самое начало титров.
Свернуть

ИзображениеИзображение
Не в сети
Профиль  
 Добавлено: 2012-03-01 20:27 (спустя 2 дня 20 часов)
Аватара пользователя
Стаж: 9 лет
Сообщений: 193
Спасибок: 11
Лайков: 4
:bra_vo: :bra_vo: :bra_vo: Смотрите!!! Качайте!!! не пожалеете!!! :bra_vo: :)
Не в сети
Профиль  
Начать новую темуОтветить на тему  [ Сообщений: 2 ] 
Вы не можете начинать темы
Вы не можете отвечать на сообщения
Вы не можете редактировать свои сообщения
Вы не можете удалять свои сообщения