Правила форума

  • В этом разделе создание новых тем Запрещено.
  • Для создания новых тем пользуйтесь Корневым разделом DVD и HD фильмы.
Начать новую темуОтветить на тему  [ Сообщений: 2 ] 
Торрент файл
Размер: 4.35 GB • Зарегистрирован: 4 года 7 месяцев • Статус: Проверено
Скачан: 188 раз • Желающих скачать: 0 • Поблагодарили: 27 раз
 Раздают: 0  |  0 KB/s  ]   Качают: 0  |  0 KB/s  ] 
 Полного источника не было 10 месяцев 
Сообщения
 Добавлено: 2012-04-17 18:45
Аватара пользователя
Стаж: 5 лет 5 месяцев
Возраст: 30
Сообщений: 353
Спасибок: 7455
Милый друг / Bel Ami

Изображение


Год выпуска: 2012
Страна: Франция, Великобритания, Италия (19 Entertainment, Protagonist Pictures, Rai Cinema, Redwave Films)
Слоган: «Соблазн. Обольщение. Страсть.»
Жанр: драма
Продолжительность: 01:38:14
Перевод: Профессиональный (дубляж)
Дублеры: Александр Гаврилин, Анастасия Нестеренко, Алексей Колган
Субтитры: Нет

Режиссёр: Деклан Доннеллан, Ник Ормерод / Declan Donnellan, Nick Ormerod
Сценарист: Рэйчел Бенетт, Ги де Мопассан
Продюсер: Уберто Пазолини, Лори Борг, Саймон Фуллер
Оператор: Стефано Фаливене
Композитор: Лэкшман Джозеф Де Сарам, Рэйчел Портман
В ролях: Роберт Паттинсон, Кристина Риччи, Ума Турман, Кристин Скотт Томас, Наталия Тена, Колм Мини, Холли Грэйнджер, Филип Гленистер, Пип Торренс, Джеймс Лэнс
Описание: Жоржа влекут деньги, секс и власть. Обольстительная внешность и железные нервы карточного игрока, обворожительные манеры и когти хищника — и Париж, город порока и страсти, лежит у его ног…

Доп.информация: нет
Рейтинг MPAA: Рейтинг R (Подростки до 17 лет допускаются на фильм только в сопровождении одного из родителей)
Мировая премьера: 17 февраля 2012
Премьера в России: 29 марта 2012, «UPI»
Кассовые сборы: $3 122 235

Изображение Изображение Изображение


Качество: DVD5 R5
Формат: DVD Video
Видео кодек: MPEG2
Аудио кодек: AC3 (Dolby Digital)
Видео: PAL 16:9 (720x576(0.529)) MPEG Video, 25,000 кадр/сек, 5484 Кбит/сек
Аудио #1: Russian (Dolby AC3, 6 ch) 448 Кбит/сек, 48,0 КГц [Профессиональный (дубляж)]
Субтитры: Нет
"DVDInfo"
Title:
Size: 4.35 Gb ( 4 557 468 KBytes ) - DVD-5
Enabled regions: 1, 2, 3, 4, 5, 6, 7, 8

VTS_01 :
Play Length: 00:00:05
Video: PAL 4:3 (720x576) VBR

VTS_02 :
Play Length: 00:00:16
Video: PAL 16:9 (720x576) VBR, Auto Letterboxed
Audio:
Not specified (Dolby AC3, 2 ch)

VTS_03 :
Play Length: 00:00:07
Video: PAL 16:9 (720x576) VBR, Auto Letterboxed
Audio:
Not specified (Dolby AC3, 2 ch)

VTS_04 :
Play Length: 00:00:16
Video: PAL 16:9 (720x576) VBR, Auto Letterboxed
Audio:
Not specified (Dolby AC3, 2 ch)

VTS_05 :
Play Length: 01:38:14
Video: PAL 16:9 (720x576) VBR, Auto Letterboxed
Audio:
Russian (Dolby AC3, 6 ch)

Menu Video:
PAL 16:9 (720x576) VBR
Auto Pan&Scan, Auto Letterboxed
Menu Subtitles:
Not specified
Menu English Language Unit :
Root Menu
Свернуть

"MediaInfo"
Общее
Полное имя : J:\Новинки 2012\Milyj.drug.2012.DVD5\VIDEO_TS\VTS_05_1.VOB
Формат : MPEG-PS
Размер файла : 1024 Мбайт
Продолжительность : 23 м.
Режим общего битрейта : Переменный
Общий поток : 6053 Кбит/сек

Видео
Идентификатор : 224 (0xE0)
Формат : MPEG Video
Версия формата : Version 2
Профиль формата : Main@Main
Параметр BVOP формата : Да
Параметр матрицы формата : По умолчанию
Параметр GOP формата : M=3, N=12
Продолжительность : 23 м.
Вид битрейта : Переменный
Битрейт : 5484 Кбит/сек
Максимальный битрейт : 8000 Кбит/сек
Ширина : 720 пикселей
Высота : 576 пикселей
Соотношение сторон : 16:9
Частота кадров : 25,000 кадров/сек
Стандарт вещания : PAL
Цветовое пространство : YUV
Субдискретизация насыщенности : 4:2:0
Битовая глубина : 8 бит
Тип развёртки : Прогрессивная
Метод сжатия : С потерями
Бит/(Пиксели*Кадры) : 0.529
Размер потока : 928 Мбайт (91%)

Аудио
Идентификатор : 189 (0xBD)-128 (0x80)
Формат : AC-3
Формат/Информация : Audio Coding 3
Расширение режима : CM (complete main)
Режим смешивания : DVD-Video
Продолжительность : 23 м.
Вид битрейта : Постоянный
Битрейт : 448 Кбит/сек
Каналы : 6 каналов
Расположение каналов : Front: L C R, Side: L R, LFE
Частота : 48,0 КГц
Битовая глубина : 16 бит
Метод сжатия : С потерями
Размер потока : 75,8 Мбайт (7%)

Свернуть

Скриншоты
Скриншоты меню
Изображение
Изображение
Свернуть
Изображение
Изображение
Изображение
Изображение
Изображение
Изображение
Изображение
Изображение
Свернуть

Знаете ли Вы, что...
Главная роль была предложена Николь Кидман, но она была вынуждена отказаться из-за конфликта в графиках съемок.
«Милый друг» - экранизация одноименного романа Ги де Мопассана.
Свернуть

Изображение
Не в сети
Профиль  
 Добавлено: 2012-04-18 22:28 (спустя 1 день 3 часа)
Аватара пользователя
Стаж: 8 лет 3 месяца
Возраст: 24
Сообщений: 11
Спасибок: 47
Раздаём!
Не в сети
Профиль  
Начать новую темуОтветить на тему  [ Сообщений: 2 ] 
Вы не можете начинать темы
Вы не можете отвечать на сообщения
Вы не можете редактировать свои сообщения
Вы не можете удалять свои сообщения