Правила форума

  • В этом разделе создание новых тем Запрещено.
  • Для создания новых тем пользуйтесь Корневым разделом DVD и HD фильмы.
Начать новую темуОтветить на тему  [ Сообщений: 2 ] 
Торрент файл
Размер: 3.78 GB • Зарегистрирован: 5 лет 1 месяц • Статус: Проверено
Скачан: 57 раз • Желающих скачать: 0 • Поблагодарили: 10 раз
 Раздают: 0  |  0 KB/s  ]   Качают: 0  |  0 KB/s  ] 
 Полного источника не было 2 года 7 месяцев 
Сообщения
 Добавлено: 2011-10-11 20:16
Книголюб
Аватара пользователя
Стаж: 7 лет 2 месяца
Сообщений: 2823
Спасибок: 48829
Лайков: 73
Моби Дик: Охота на монстра
2010: Moby Dick
Изображение


Год выпуска: 2010
Страна: США
Жанр: боевик, триллер, приключения
Продолжительность: 01:27:22
Перевод: Профессиональный (многоголосый закадровый) hr]

Режиссёр: Трей Стоукс
В ролях: Бэрри Боствик, Рене О’Коннор, Майкл Тех, Джей Гиллеспи, Адам Граймс, Майкл Гальо, Брайан МакКлюр, Дюран Фоулер, Карлос Антонио
Описание: 0 октября 1969 года американская субмарина подверглась нападению гигантского кита. Погибли все, кроме Джона Ахаба. Потеряв в битве не только ногу, но и частичку своего разума, он всю жизнь посвящает охоте на таинственного монстра. Получив в свое распоряжение суперсовременную подлодку под названием «Пиквед», он превращает судно в оружие даже не 21-го, а 22-го века, оснастив его мощнейшими компьютерами и мощнейшим оружием. С помощью специалистки по китам, ученой по имени Мишель Герман, Джону удается выследить чудовищного кита нескольких миллионов лет от роду. Охота начинается…
Мировая премьера: 23 ноября 2010
Премьера в России: 17 мая 2011, «Lizard Cinema Trade»
Изображение 2.458 121

Качество: DVD5
Формат: DVD Video
Видео кодек: MPEG2
Аудио кодек: AC3 (Dolby Digital)
Видео: PAL 16:9 (720x576), 5728 Кбит/сек, 25,000 кадр/сек, 0.552Бит/Пиксель
Аудио #1: Russian 48,0 КГц,6 каналов
Аудио #2: English 48,0 КГц,2 канала

MediaInfo
Общее
Полное имя : I:\Moby.Dick.2010.P.DVD\VIDEO_TS\VTS_02_1.VOB
Формат : MPEG-PS
Размер файла : 1024 Мбайт
Продолжительность : 21 м.
Общий поток : 6628 Кбит/сек

Видео
Идентификатор : 224 (0xE0)
Формат : MPEG Video
Версия формата : Version 2
Профиль формата : Main@Main
Параметр BVOP формата : Да
Параметр матрицы формата : По умолчанию
Продолжительность : 21 м.
Вид битрейта : Переменный
Битрейт : 5728 Кбит/сек
Номинальный битрейт : 8000 Кбит/сек
Ширина : 720 пикс.
Высота : 576 пикс.
Соотношение сторон : 16:9
Частота кадров : 25,000 кадр/сек
Стандарт вещания : PAL
Цветовое пространство : YUV
Подвыборка цветности : 4:2:0
Битовая глубина : 8 бит
Тип развёртки : Чересстрочная
Порядок развёртки : Верхнее поле первое
Метод сжатия : С потерями
Бит/(Пиксели*Кадры) : 0.552
Размер потока : 885 Мбайт (86%)

Аудио #1
Идентификатор : 189 (0xBD)-128 (0x80)
Формат : AC-3
Формат/Информация : Audio Coding 3
Расширение режима : CM (complete main)
Режим смешивания : DVD-Video
Продолжительность : 21 м.
Вид битрейта : Постоянный
Битрейт : 384 Кбит/сек
Каналы : 6 каналов
Расположение каналов : Front: L C R, Side: L R, LFE
Частота : 48,0 КГц
Битовая глубина : 16 бит
Метод сжатия : С потерями
Размер потока : 59,3 Мбайт (6%)

Аудио #2
Идентификатор : 189 (0xBD)-129 (0x81)
Формат : AC-3
Формат/Информация : Audio Coding 3
Расширение режима : CM (complete main)
Режим смешивания : DVD-Video
Продолжительность : 21 м.
Вид битрейта : Постоянный
Битрейт : 192 Кбит/сек
Каналы : 2 канала
Расположение каналов : Front: L R
Частота : 48,0 КГц
Битовая глубина : 16 бит
Метод сжатия : С потерями
Размер потока : 29,7 Мбайт (3%)

Аудио #3
Идентификатор : 189 (0xBD)-130 (0x82)
Формат : AC-3
Формат/Информация : Audio Coding 3
Расширение режима : CM (complete main)
Режим смешивания : DVD-Video
Продолжительность : 21 м.
Вид битрейта : Постоянный
Битрейт : 192 Кбит/сек
Каналы : 2 канала
Расположение каналов : Front: L R
Частота : 48,0 КГц
Битовая глубина : 16 бит
Метод сжатия : С потерями
Размер потока : 29,7 Мбайт (3%)

Текст
Идентификатор : 189 (0xBD)-32 (0x20)
Формат : RLE
Формат/Информация : Run-length encoding
Режим смешивания : DVD-Video

Меню


Свернуть

Скриншоты
Изображение
Изображение
Изображение
Изображение
Изображение
Свернуть


Последний раз редактировалось coldun 2011-10-15 16:25, всего редактировалось 1 раз.
Не в сети
Профиль  
 Добавлено: 2011-10-11 20:44 (спустя 28 минут)
Аватара пользователя
Стаж: 8 лет 3 месяца
Возраст: 43
Сообщений: 3290
Спасибок: 21012
Лайков: 3
coldun
Необходимы скриншоты оригинального разрешения видео.
[Инструкция] Как сделать скриншоты с видео
[Инструкция] Куда и как залить скриншоты
Исправьте пожалуйста
Как все исправите, то сообщите пожалуйста в ЛС мне или любому модератору видео. Обязательно со ссылкой на релиз :)
_________________
Изображение
Не в сети
Профиль  
Начать новую темуОтветить на тему  [ Сообщений: 2 ] 
Вы не можете начинать темы
Вы не можете отвечать на сообщения
Вы не можете редактировать свои сообщения
Вы не можете удалять свои сообщения