Правила форума

  • В этом разделе создание новых тем Запрещено.
  • Для создания новых тем пользуйтесь Корневым разделом DVD и HD фильмы.
Начать новую темуОтветить на тему  [ Сообщений: 5 ] 
Торрент файл
Размер: 5.49 GB • Зарегистрирован: 3 года 10 месяцев • Статус: Проверено
Скачан: 250 раз • Желающих скачать: 0 • Поблагодарили: 51 раз
 Раздают: 0  |  0 KB/s  ]   Качают: 0  |  0 KB/s  ] 
 Полного источника не было 4 месяца 10 дней 
Сообщения
 Добавлено: 2013-01-27 14:25
Модератор релиз-группы
Аватара пользователя
Стаж: 6 лет 5 месяцев
Возраст: 25
Сообщений: 622
Спасибок: 10257
Лайков: 7
Мой парень – псих / Silver Linings Playbook

Изображение


Год выпуска: 2012
Страна: США
Жанр: драма, мелодрама, комедия
Продолжительность: 1:57:07
Перевод: Профессиональный (многоголосый закадровый)
Субтитры: Нет

Режиссёр: Дэвид О. Расселл
В ролях: Брэдли Купер, Дженнифер Лоуренс, Роберт Де Ниро, Джеки Уивер, Крис Такер, Анупам Кхер, Джон Ортиз, Ши Уигхэм, Джулия Стайлз, Пол Херман
Описание: После ухода жены жизнь главного героя кардинально меняется. Он переезжает в дом родителей и теряет старых друзей. Казалось бы, хуже не придумаешь, но жизнь всегда преподносит все самое интересное в тот момент, когда меньше всего ожидаешь. Знакомство с девушкой Тиффани — как раз тот случай. Трогательная и смешная история, которая заставляет не только главного героя, но и нас с вами взглянуть на привычные вещи с другой, удивительной стороны.
Изображение 7.5/10 (9,414 votes)
Изображение 8.1/10 (54,355 votes)
Раздача группы: Изображение
Качество: DVD9
Формат: DVD Video
Видео кодек: MPEG2
Аудио кодек: AC3 (Dolby Digital)
Видео: MPEG2 Video 720x576 (16:9) 25.00fps 8000kbps
Аудио #1: Dolby AC3 48000Hz 6ch 448kbp
Субтитры: Нет
MediaInfo
General
Complete name : G:\К и р и л л\Фильмы\Moj.paren.psih.2012.D.DVD.IRONCLUB\VIDEO_TS\VTS_01_4.VOB
Format : MPEG-PS
File size : 1 024 MiB
Duration : 22mn 30s
Overall bit rate : 6 359 Kbps

Video
ID : 224 (0xE0)
Format : MPEG Video
Format version : Version 2
Format profile : Main@Main
Format settings, BVOP : Yes
Format settings, Matrix : Default
Format settings, GOP : M=3, N=15
Duration : 22mn 30s
Bit rate mode : Variable
Bit rate : 5 784 Kbps
Nominal bit rate : 8 000 Kbps
Width : 720 pixels
Height : 576 pixels
Display aspect ratio : 16:9
Frame rate : 25.000 fps
Standard : PAL
Color space : YUV
Chroma subsampling : 4:2:0
Bit depth : 8 bits
Scan type : Interlaced
Scan order : Top Field First
Compression mode : Lossy
Bits/(Pixel*Frame) : 0.558
Stream size : 931 MiB (91%)

Audio
ID : 189 (0xBD)-128 (0x80)
Format : AC-3
Format/Info : Audio Coding 3
Mode extension : CM (complete main)
Muxing mode : DVD-Video
Duration : 22mn 30s
Bit rate mode : Constant
Bit rate : 448 Kbps
Channel(s) : 6 channels
Channel positions : Front: L C R, Side: L R, LFE
Sampling rate : 48.0 KHz
Bit depth : 16 bits
Compression mode : Lossy
Delay relative to video : -600ms
Stream size : 72.1 MiB (7%)

Menu
Свернуть

DVDInfo
Title: Moj.paren.psih.2012.D.DVD.IRONCLUB
Size: 5.49 Gb ( 5,759,958 KBytes ) - DVD-9
Enabled regions: 1, 2, 3, 4, 5, 6, 7, 8

VTS_01 :
Play Length: 01:57:07
Video: PAL 16:9 (720x576) VBR, Auto Pan&Scan
Audio:
Russian (Dolby AC3, 6 ch)

VTS_02 :
Play Length: 00:00:08
Video: PAL 4:3 (720x576) VBR

VTS_03 :
Play Length: 00:00:30
Video: PAL 4:3 (720x576) VBR
Audio:
English (Dolby AC3, 2 ch)

VTS_04 :
Play Length: 00:00:21
Video: PAL 16:9 (720x576) VBR, Auto Pan&Scan
Audio:
English (Dolby AC3, 2 ch)

Menu Video:
NTSC 4:3 (720x480) VBR
Auto Pan&Scan, Auto Letterboxed
Menu Russian Language Unit :
Root Menu
Chapter (PTT) Menu
Свернуть

Скриншоты
Изображение
Изображение
Изображение
Изображение
Изображение
Свернуть
_________________
Изображение


Последний раз редактировалось Slovetskii 2013-01-27 14:52, всего редактировалось 1 раз.
Не в сети
Профиль  
 Добавлено: 2013-01-27 14:36 (спустя 10 минут)
Руководитель релиз-группы
Аватара пользователя
Стаж: 7 лет 5 месяцев
Возраст: 31
Сообщений: 3406
Спасибок: 46729
Лайков: 5
Slovetskii
добавьте отчет DVDInfo
Не в сети
Профиль  
 Добавлено: 2013-01-27 14:54 (спустя 18 минут)
Модератор релиз-группы
Аватара пользователя
Стаж: 6 лет 5 месяцев
Возраст: 25
Сообщений: 622
Спасибок: 10257
Лайков: 7
askboy
готово.
_________________
Изображение
Не в сети
Профиль  
 Добавлено: 2013-01-30 19:17 (спустя 3 дня)
Аватара пользователя
Стаж: 7 лет 2 месяца
Возраст: 29
Сообщений: 73
моно смотреть фильм норм главное вникать :)
Не в сети
Профиль  
 Добавлено: 2013-02-10 22:02 (спустя 11 дней)
Стаж: 8 лет 6 месяцев
Сообщений: 12
раздайте норм. плз
Не в сети
Профиль  
Начать новую темуОтветить на тему  [ Сообщений: 5 ] 
Вы не можете начинать темы
Вы не можете отвечать на сообщения
Вы не можете редактировать свои сообщения
Вы не можете удалять свои сообщения