Правила форума

  • В этом разделе создание новых тем Запрещено.
  • Для создания новых тем пользуйтесь Корневым разделом DVD и HD фильмы.
Начать новую темуОтветить на тему  [ 1 сообщение ] 
Торрент файл
Размер: 4.37 GB • Зарегистрирован: 3 года 10 месяцев • Статус: Проверено
Скачан: 140 раз • Желающих скачать: 0 • Поблагодарили: 38 раз
 Раздают: 0  |  0 KB/s  ]   Качают: 0  |  0 KB/s  ] 
 Полного источника не было 2 года 3 месяца 
Сообщения
 Добавлено: 2013-01-27 18:10
Руководитель релиз-группы
Аватара пользователя
Стаж: 7 лет 4 месяца
Возраст: 31
Сообщений: 3407
Спасибок: 46729
Лайков: 5
Изображение

Мой парень – псих
Silver Linings Playbook


Год выпуска: 2012
Страна: США
Слоган: «На каждого психа найдётся своя чокнутая»
Жанр: драма, мелодрама, комедия
Продолжительность: 01:57:07
Перевод: Профессиональный (многоголосый, закадровый)
Режиссер: Дэвид О. Расселл
Сценарий: Дэвид О. Расселл
Продюсер: Брюс Коэн, Донна Джильотти, Брэдли Купер, Джон Гордон, Марк Камин
Оператор: Масанобу Такаянаги
Композитор: Дэнни Элфман
В ролях: Брэдли Купер, Дженнифер Лоуренс, Роберт Де Ниро, Джеки Уивер, Крис Такер, Анупам Кхер, Джон Ортиз, Ши Уигхэм, Джулия Стайлз, Пол Херман, Дэш Майок, Мэттью Расселл
Бюджет: $21 000 000
Сборы в мире: $78 673 990
Описание: Главная перемена в жизни героя, после того, как жена ему изменяет - что у него диагностируют биполярное расстройство, и он 8 месяцев проводит в психушке. После чего по решению суда не должен с ней встречаться.
Изображение
MPAA: Изображение
Релиз: Изображение Раздача группы: Изображение
Качество: DVD5 (сжатый)
Формат: DVD Video
Видео: MPEG2; PAL 16:9 (720x576)
Аудио: Dolby AC3, 6 ch, 448 Kbps Russian
Субтитры: нет
Дополнительная информация :
Исходник : DVD9 (5.49 Гб) [лицензия, PAL 16:9]
Убрано : реклама, заставки, предупреждения
Сжатие фильма : 23.3 % сжатия (без учета ручного перераспределения битрейта, за счет большего сжатия конечных титров)
использовались программы
    DVDRemakePro
    Rebuilder и CCE (Cinema Craft Encoder), 5 проходов
    Работоспособность проверена на софтовом плеере Windows Media и бытовом LG
Свернуть
DVDInfo
    Title: Moi.paren.psih_2012_DVD5.[R.G.Daredevil]
    Size: 4.37 Gb ( 4 581 900,00 KBytes ) - DVD-5
    Enabled regions: 1, 2, 3, 4, 5, 6, 7, 8

    VTS_01 :
    Play Length: 01:57:07
    Video: PAL 16:9 (720x576) VBR, Auto Letterboxed
    Audio:
    Russian (Dolby AC3, 6 ch)

    VTS_02 :
    Play Length: 00:00:00
    Video: PAL 4:3 (720x576) VBR

    VTS_03 :
    Play Length: 00:00:00
    Video: PAL 4:3 (720x576) VBR
    Audio:
    English (Dolby AC3, 2 ch)

    VTS_04 :
    Play Length: 00:00:00
    Video: PAL 16:9 (720x576) VBR, Auto Letterboxed
    Audio:
    English (Dolby AC3, 2 ch)
Свернуть
mediainfo
    Формат : MPEG-PS
    Размер файла : 1024 Мбайт
    Продолжительность : 26 м.
    Режим общего битрейта : Переменный
    Общий поток : 5409 Кбит/сек

    Видео
    Идентификатор : 224 (0xE0)
    Формат : MPEG Video
    Версия формата : Version 2
    Профиль формата : Main@Main
    Параметр BVOP формата : Да
    Параметр матрицы формата : Выборочная
    Продолжительность : 26 м.
    Вид битрейта : Переменный
    Битрейт : 4853 Кбит/сек
    Максимальный битрейт : 9000 Кбит/сек
    Ширина : 720 пикселей
    Высота : 576 пикселей
    Соотношение сторон : 16:9
    Частота кадров : 25,000 кадров/сек
    Стандарт вещания : PAL
    Цветовое пространство : YUV
    Субдискретизация насыщенности : 4:2:0
    Битовая глубина : 8 бит
    Тип развёртки : Чересстрочная
    Порядок развёртки : Верхнее поле первое
    Метод сжатия : С потерями
    Бит/(Пиксели*Кадры) : 0.468
    Размер потока : 919 Мбайт (90%)

    Аудио
    Идентификатор : 189 (0xBD)-128 (0x80)
    Формат : AC-3
    Формат/Информация : Audio Coding 3
    Расширение режима : CM (complete main)
    Режим смешивания : DVD-Video
    Продолжительность : 26 м.
    Вид битрейта : Постоянный
    Битрейт : 448 Кбит/сек
    Каналы : 6 каналов
    Расположение каналов : Front: L C R, Side: L R, LFE
    Частота : 48,0 КГц
    Битовая глубина : 16 бит
    Метод сжатия : С потерями
    Размер потока : 84,8 Мбайт (8%)

    Меню
Свернуть
Знаете ли Вы, что...
  • Главную роль мог получить Марк Уолберг.
  • Энн Хэтэуэй первоначально рассматривалась в пару Брэдли Куперу, но она покинула проект из-за несогласованности расписаний съемок.
  • Рэйчел МакАдамс, Оливия Уайлд, Элизабет Бэнкс, Блейк Лайвли, Руни Мара, Кирстен Данст и Андреа Райзборо рассматривались на главную женскую роль, которая досталась Дженнифер Лоуренс.
  • Анджелина Джоли рассматривалась на роль в фильме.
  • Брэдли Купер ранее пробовался на роль сына Роберта Де Ниро в фильме «Все путем» (2009), но не получил эту роль.
  • Это первый после «Деньги решают все» (1997) фильм не из серии «Час пик», в котором снялся Крис Такер.
  • По вывеске кинотеатра можно заметить, что в нем показывают «Полуночный экспресс» (2008) с Брэдли Купером.
  • Упомянутые в фильме игры Eagles проходят в 2008 году. Однако можно заметить болельщика в футболке с именем Nnamdi Asomugha, которого не было в команде до 2011 года.
  • Когда Пат читает сообщение от Никки в танцевальной студии, кулон у него на шее висит спереди. Когда он уходит и камера меняет угол, он смещен назад.
  • Игры Eagles, упомянутые в фильме, проходили во время сезона 2008 года, но они показаны не в том порядке, в котором они проходили на самом деле.
  • Когда Пат и Тиффани обсуждают ответное письмо Никки в квартире Тиффани, его кулон несколько раз меняет свое положение.
  • Когда Пат возвращается домой в начале фильма, он и его отец стоят и разговаривают, а его ожерелье исчезает во время смены кадров.
  • Закусочная Llanerch находится в Аппер Дарби (штат Пенсильвания), примерно в 10 милях от их домов в Ридли-Парке. И как-то маловероятно, чтобы Пат и Тиффани пошли туда пешком на свое свидание.
  • В начале фильма, во время сцены у стадиона Lincoln Financial Field, машина, в которой едут актеры, движется на юг по I-95, когда они едут со стороны Балтимора. И, соответственно, стадион должен был появиться в кадре с противоположной стороны.
  • Когда Тиффани говорит Пату, что у нее письмо от Никки, в момент, когда она протягивает конверт, можно заметить, что он пустой. Но после того как конверт открыли, Пат читает письмо, которое якобы было внутри него.
Свернуть
Скриншоты

меню
Изображение

Изображение
Свернуть
Изображение

Изображение

Изображение
Свернуть
Не в сети
Профиль  
Начать новую темуОтветить на тему  [ 1 сообщение ] 
Вы не можете начинать темы
Вы не можете отвечать на сообщения
Вы не можете редактировать свои сообщения
Вы не можете удалять свои сообщения