Правила форума

  • В этом разделе создание новых тем Запрещено.
  • Для создания новых тем пользуйтесь Корневым разделом DVD и HD фильмы.
Начать новую темуОтветить на тему  [ 1 сообщение ] 
Торрент файл
Размер: 4.37 GB • Зарегистрирован: 4 года 8 месяцев • Статус: Проверено
Скачан: 79 раз • Желающих скачать: 0 • Поблагодарили: 12 раз
 Раздают: 0  |  0 KB/s  ]   Качают: 0  |  0 KB/s  ] 
 Полного источника не было 3 года 2 месяца 
Сообщения
 Добавлено: 2012-03-27 08:41
DVD Release Group
Аватара пользователя
Стаж: 7 лет 1 месяц
Сообщений: 3568
Спасибок: 247569
Лайков: 1020
Мужчины в большом городе 2

Mannerherzen... und die ganz ganz grosse Liebe


Изображение


Год выпуска: 2011
Страна: Германия
Жанр: Комедия
Продолжительность: 01:47:51
Перевод: Профессиональный (полное дублирование)
Субтитры: Нет
Режиссер: Саймон Верховен
В ролях: Тиль Швайгер, Флориан Дэвид Фитц, Кристиан Ульмен, Юстус фон Донаньи, Надя Уль, Паскуале Алеарди, Йоханнес Алльмайер, Томас Бадинг, Майкл Бэрал, Оли Бигальке

Описание: Сюжет комедии показывает разных по характеру и роду деятельности мужчин. Один из них — хозяин кафе и будущий папа, второй — безработный, третий музыкальный продюсер и бабник, а четвертый разводится. Чего именно хотят мужчины — неизвестно. Ясно только, что все они весьма схожи в своем стремлении к счастью и любви.
КиноПоиск: 6.74 (864)
IMDb: 6.1 (303)
Дополнительно:
Исходник: DVD9 (4.97 GB) [лицензия, PAL 16:9].
Убрано: допы, реклама, заставки, предупреждения.
Сжатие фильма 15 % сжатия (без учета ручного перераспределения битрейта, за счет большего сжатия конечных титров).
Работоспособность проверена на софтовом плеере Windows Media и бытовом LG.
Качество: DVD5 (сжатый)
Формат: DVD Video
Видео кодек: MPEG2
Аудио кодек: AC3
Видео: 720x576 25fps 5300Kbps
Аудио: 48kHz 6ch 448Kbps
"MediaInfo"

Формат : MPEG-PS
Размер файла : 1024 Мбайт
Продолжительность : 24 м.
Режим общего битрейта : Переменный
Общий поток : 5864 Кбит/сек
Библиотека кодирования : encoded by TMPGEnc (ver. 2.524.63.181)

Видео
Идентификатор : 224 (0xE0)
Формат : MPEG Video
Версия формата : Version 2
Профиль формата : Main@Main
Параметр BVOP формата : Да
Параметр матрицы формата : Выборочная
Продолжительность : 24 м.
Вид битрейта : Переменный
Битрейт : 5300 Кбит/сек
Ширина : 720 пикселей
Высота : 576 пикселей
Соотношение сторон : 16:9
Частота кадров : 25,000 кадров/сек
Стандарт вещания : PAL
Цветовое пространство : YUV
Субдискретизация насыщенности : 4:2:0
Битовая глубина : 8 бит
Метод сжатия : С потерями
Бит/(Пиксели*Кадры) : 0.511
Размер потока : 925 Мбайт (90%)
Библиотека кодирования : TMPGEnc 2.524.63.181

Аудио
Идентификатор : 189 (0xBD)-128 (0x80)
Формат : AC-3
Формат/Информация : Audio Coding 3
Расширение режима : CM (complete main)
Режим смешивания : DVD-Video
Продолжительность : 24 м.
Вид битрейта : Постоянный
Битрейт : 448 Кбит/сек
Каналы : 6 каналов
Расположение каналов : Front: L C R, Side: L R, LFE
Частота : 48,0 КГц
Битовая глубина : 16 бит
Метод сжатия : С потерями
Задержка видео : 192 мс.
Размер потока : 78,2 Мбайт (8%)

Меню
Свернуть

"Скриншоты"

Изображение
Изображение
Изображение
Изображение
Изображение
Изображение
Изображение
Изображение
Свернуть

Раздача группы:
Изображение
Не в сети
Профиль  
Начать новую темуОтветить на тему  [ 1 сообщение ] 
Вы не можете начинать темы
Вы не можете отвечать на сообщения
Вы не можете редактировать свои сообщения
Вы не можете удалять свои сообщения