Правила форума

  • В этом разделе создание новых тем Запрещено.
  • Для создания новых тем пользуйтесь Корневым разделом DVD и HD фильмы.
Начать новую темуОтветить на тему  [ 1 сообщение ] 
Торрент файл
Размер: 4.97 GB • Зарегистрирован: 4 года 8 месяцев • Статус: Проверено
Скачан: 39 раз • Желающих скачать: 0 • Поблагодарили: 1 раз
 Раздают: 0  |  0 KB/s  ]   Качают: 0  |  0 KB/s  ] 
 Полного источника не было 3 года 2 месяца 
Сообщения
 Добавлено: 2012-03-26 23:45
Аватара пользователя
Стаж: 5 лет 5 месяцев
Возраст: 30
Сообщений: 353
Спасибок: 7455
Мужчины в большом городе 2 / Mannerherzen... und die ganz ganz grosse Liebe

Изображение


Год выпуска: 2011
Страна: США (Wiedemann & Berg Filmproduktion)
Жанр: комедия
Продолжительность: 01:47:51
Перевод: Профессиональный (дубляж)
Дублеры: Даниил Эльдаров, Диомид Виноградов, Александр Груздев, Ирина Киреева, Алексей Мясников
Субтитры: Нет

Режиссёр: Саймон Верховен / Simon Verhoeven
Сценарист: Саймон Верховен / Simon Verhoeven
Продюсер: Квирин Берг, Макс Видерманн
Оператор: Джо Хейм
Композитор: Гари Гоу, Вольфганг Хаммершмид, Саймон Верховен
В ролях: Тиль Швайгер, Флориан Дэвид Фитц, Кристиан Ульмен, Юстус фон Донаньи, Надя Уль, Паскуале Алеарди, Йоханнес Алльмайер, Томас Бадинг, Майкл Бэрал, Оли Бигальке и др.

Описание: Сюжет комедии показывает разных по характеру и роду деятельности мужчин. Один из них — хозяин кафе и будущий папа, второй — безработный, третий музыкальный продюсер и бабник, а четвертый разводится. Чего именно хотят мужчины — неизвестно. Ясно только, что все они весьма схожи в своем стремлении к счастью и любви.

Доп.информация: нет
Мировая премьера: 7 сентября 2011
Премьера в России: 22 февраля 2012, «Люксор»

Изображение Изображение Изображение

Качество: DVD9 R5
Формат: DVD Video
Видео кодек: MPEG2
Аудио кодек: AC3 (Dolby Digital)
Видео: PAL 16:9 (720x576(0.579)) MPEG Video, 25,000 кадр/сек, 6001 Кбит/сек
Аудио #1: Russian (Dolby AC3, 6 ch) 448 Кбит/сек, 48,0 КГц [Профессиональный (дубляж)]
Субтитры: Нет
"DVDInfo"
Title:
Size: 4.97 Gb ( 5 212 836 KBytes ) - DVD-9
Enabled regions: 1, 2, 3, 4, 5, 6, 7, 8

VTS_01 :
Play Length: 00:00:19
Video: PAL 4:3 (720x576) VBR
Audio:
Russian (Dolby AC3, 2 ch)

VTS_02 :
Play Length: 00:00:02
Video: PAL 16:9 (720x576) VBR, Auto Letterboxed
Audio:
Russian (Dolby AC3, 2 ch)

VTS_03 :
Play Length: 01:47:51
Video: PAL 16:9 (720x576) VBR, Auto Letterboxed
Audio:
Russian (Dolby AC3, 6 ch)

Menu Video:
PAL 4:3 (720x576) VBR
Menu English Language Unit :
Root Menu
Chapter (PTT) Menu
Свернуть

"MediaInfo"
Общее
Полное имя : J:\Новинки 2012\Muzhchiny.v.bolshom.gorode.2.2011.DVD9\VIDEO_TS\VTS_03_2.VOB
Формат : MPEG-PS
Размер файла : 1024 Мбайт
Продолжительность : 21 м.
Общий поток : 6580 Кбит/сек

Видео
Идентификатор : 224 (0xE0)
Формат : MPEG Video
Версия формата : Version 2
Профиль формата : Main@Main
Параметр BVOP формата : Да
Параметр матрицы формата : По умолчанию
Параметр GOP формата : M=3, N=12
Продолжительность : 21 м.
Битрейт : 6001 Кбит/сек
Максимальный битрейт : 8400 Кбит/сек
Ширина : 720 пикселей
Высота : 576 пикселей
Соотношение сторон : 16:9
Частота кадров : 25,000 кадров/сек
Стандарт вещания : PAL
Цветовое пространство : YUV
Субдискретизация насыщенности : 4:2:0
Битовая глубина : 8 бит
Тип развёртки : Чересстрочная
Порядок развёртки : Верхнее поле первое
Метод сжатия : С потерями
Бит/(Пиксели*Кадры) : 0.579
Размер потока : 934 Мбайт (91%)

Аудио
Идентификатор : 189 (0xBD)-128 (0x80)
Формат : AC-3
Формат/Информация : Audio Coding 3
Расширение режима : CM (complete main)
Режим смешивания : DVD-Video
Продолжительность : 21 м.
Вид битрейта : Постоянный
Битрейт : 448 Кбит/сек
Каналы : 6 каналов
Расположение каналов : Front: L C R, Side: L R, LFE
Частота : 48,0 КГц
Битовая глубина : 16 бит
Метод сжатия : С потерями
Задержка видео : -608 мс.
Размер потока : 69,7 Мбайт (7%)
Свернуть


Скриншоты
Скриншоты меню
Изображение
Изображение
Свернуть
Изображение
Изображение
Изображение
Изображение
Изображение
Изображение
Изображение
Изображение
Свернуть


ИзображениеИзображение
Не в сети
Профиль  
Начать новую темуОтветить на тему  [ 1 сообщение ] 
Вы не можете начинать темы
Вы не можете отвечать на сообщения
Вы не можете редактировать свои сообщения
Вы не можете удалять свои сообщения