Правила форума

  • В этом разделе создание новых тем Запрещено.
  • Для создания новых тем пользуйтесь Корневым разделом DVD и HD фильмы.
Начать новую темуОтветить на тему  [ Сообщений: 7 ] 
Торрент файл
Размер: 4.37 GB • Зарегистрирован: 4 года 9 месяцев • Статус: Проверено
Скачан: 344 раза • Желающих скачать: 0 • Поблагодарили: 72 раза
 Раздают: 0  |  0 KB/s  ]   Качают: 0  |  0 KB/s  ] 
 Полного источника не было 5 дней 
Сообщения
 Добавлено: 2012-02-16 12:30
DVD Release Group
Аватара пользователя
Стаж: 7 лет 1 месяц
Сообщений: 3570
Спасибок: 247810
Лайков: 1020
Мушкетеры

The Three Musketeers


Изображение


Год выпуска: 2011
Страна: США / Германия / Франция / Великобритания
Жанр: Боевик, приключения
Продолжительность: 01:46:00
Перевод: Профессиональный (полное дублирование)
Вид субтитров: Вшитые отключаемые
Язык субтитров: Английский, Русский
Режиссер: Пол У. С. Андерсон
В ролях: Милла Йовович, Орландо Блум, Кристоф Вальц, Логан Лерман, Мэтью Макфейден, Рэй Стивенсон, Люк Эванс, Мадс Миккельсен, Габриэлла Уайлд, Тиль Швайгер
Описание: Молодой д’Артаньян покинул родной дом и отправился в Париж, надеясь на место в полку мушкетёров. По случайности в один день он обидел сразу троих мушкетёров — Атоса, Портоса и Арамиса — и получил от всех троих вызовы на дуэль. Но дуэль была прервана появлением гвардейцев кардинала, которые хотели арестовать их за нарушение указа о запрете дуэлей. Д’Артаньян и три мушкетера победили превосходящего противника и стали друзьями. Теперь они должны остановить злобного Кардинала Ришелье и столкнутся с герцогом Бэкингемом, и предательницей Миледи Де Винтер.
Кинопоиск: 6.24 (6331)
IMDb: 6.0 (14475)
Качество: DVD5
Формат: DVD Video
Видео кодек: MPEG2
Аудио кодек: AC3
Видео: 720x576 25fps 4752Kbps
Аудио:
Аудио Rus: 48kHz 6ch 448Kbps
Аудио Ukr: 48kHz 2ch 384Kbps
"MediaInfo"

Формат : MPEG-PS
Размер файла : 1000 Мбайт
Продолжительность : 24 м.
Режим общего битрейта : Переменный
Общий поток : 5698 Кбит/сек

Видео
Идентификатор : 224 (0xE0)
Формат : MPEG Video
Версия формата : Version 2
Профиль формата : Main@Main
Параметр BVOP формата : Да
Параметр матрицы формата : Выборочная
Продолжительность : 24 м.
Вид битрейта : Переменный
Битрейт : 4752 Кбит/сек
Максимальный битрейт : 9000 Кбит/сек
Ширина : 720 пикселей
Высота : 576 пикселей
Соотношение сторон : 16:9
Частота кадров : 25,000 кадров/сек
Стандарт вещания : PAL
Цветовое пространство : YUV
Субдискретизация насыщенности : 4:2:0
Битовая глубина : 8 бит
Тип развёртки : Прогрессивная
Метод сжатия : С потерями
Бит/(Пиксели*Кадры) : 0.458
Размер потока : 834 Мбайт (83%)

Аудио #1
Идентификатор : 189 (0xBD)-128 (0x80)
Формат : AC-3
Формат/Информация : Audio Coding 3
Расширение режима : CM (complete main)
Режим смешивания : DVD-Video
Продолжительность : 24 м.
Вид битрейта : Постоянный
Битрейт : 384 Кбит/сек
Каналы : 2 канала
Расположение каналов : Front: L R
Частота : 48,0 КГц
Битовая глубина : 16 бит
Метод сжатия : С потерями
Размер потока : 67,4 Мбайт (7%)

Аудио #2
Идентификатор : 189 (0xBD)-129 (0x81)
Формат : AC-3
Формат/Информация : Audio Coding 3
Расширение режима : CM (complete main)
Режим смешивания : DVD-Video
Продолжительность : 24 м.
Вид битрейта : Постоянный
Битрейт : 448 Кбит/сек
Каналы : 6 каналов
Расположение каналов : Front: L C R, Side: L R, LFE
Частота : 48,0 КГц
Битовая глубина : 16 бит
Метод сжатия : С потерями
Размер потока : 78,6 Мбайт (8%)

Текст #1
Идентификатор : 189 (0xBD)-34 (0x22)
Формат : RLE
Формат/Информация : Run-length encoding
Режим смешивания : DVD-Video

Текст #2
Идентификатор : 189 (0xBD)-35 (0x23)
Формат : RLE
Формат/Информация : Run-length encoding
Режим смешивания : DVD-Video

Меню
Свернуть

"Скриншоты"

Изображение
Изображение
Изображение
Изображение
Изображение
Изображение
Изображение
Свернуть

Раздача группы:
Изображение
Не в сети
Профиль  
 Добавлено: 2012-02-17 13:11 (спустя 1 день)
Стаж: 8 лет 2 месяца
Сообщений: 170
Скорость раздачи смешная 20 кб.с. Можно прибавить. Спасибо.
Не в сети
Профиль  
 Добавлено: 2012-02-17 17:06 (спустя 3 часа)
Аватара пользователя
Стаж: 8 лет 6 месяцев
Сообщений: 565
Спасибок: 6266
Лайков: 1
двд5 самопляс :hi_hi_hi:
Не в сети
Профиль  
 Добавлено: 2012-02-18 06:59 (спустя 13 часов)
DVD Release Group
Аватара пользователя
Стаж: 7 лет 1 месяц
Сообщений: 3570
Спасибок: 247810
Лайков: 1020
As1
А кто писал, что лицензия? :hi_hi_hi:
Не в сети
Профиль  
 Добавлено: 2012-02-18 14:52 (спустя 7 часов)
Аватара пользователя
Стаж: 7 лет
Сообщений: 167
фильм как , качать ??
Не в сети
Профиль  
 Добавлено: 2012-02-22 16:47 (спустя 4 дня)
Стаж: 7 лет 3 месяца
Сообщений: 25
на компе тормоз, на dvd не пишет
Не в сети
Профиль  
 Добавлено: 2012-02-22 17:35 (спустя 47 минут)
Аватара пользователя
Стаж: 7 лет
Сообщений: 167
sinetundead
Всё нормально работает , что то у тебя с комп..
Не в сети
Профиль  
Начать новую темуОтветить на тему  [ Сообщений: 7 ] 
Вы не можете начинать темы
Вы не можете отвечать на сообщения
Вы не можете редактировать свои сообщения
Вы не можете удалять свои сообщения