Правила форума

  • В этом разделе создание новых тем Запрещено.
  • Для создания новых тем пользуйтесь Корневым разделом DVD и HD фильмы.
Начать новую темуОтветить на тему  [ 1 сообщение ] 
Торрент файл
Размер: 4.37 GB • Зарегистрирован: 5 лет 2 месяца • Статус: Проверено
Скачан: 223 раза • Желающих скачать: 0 • Поблагодарили: 40 раз
 Раздают: 0  |  0 KB/s  ]   Качают: 0  |  0 KB/s  ] 
 Полного источника не было 3 года 2 месяца 
Сообщения
 Добавлено: 2011-09-28 00:21
Аватара пользователя
Стаж: 5 лет 5 месяцев
Возраст: 30
Сообщений: 353
Спасибок: 7455
Наемник / The Lazarus Papers

Изображение


Год выпуска: 2010
Страна: США (Lunaflux Productions)
Жанр: фантастика, боевик, драма
Продолжительность: 01:28:40
Перевод: Профессиональный (многоголосый закадровый)

Режиссёр: Джереми Хандли / Jeremiah Hundley
Сценарист: Джереми Хандли, Д. Глэйс Ломонд
Продюсер: Джереми Хандли, Jude S. Walko, Дэниэл Зирилли
Оператор: Anka Malatynska
Композитор: Шон Хеннесси, Джереми Хандли

В ролях: Дэнни Трехо, Гэри Дэниелс, Джон Ли, Том ’Тайни’ Листер мл., Бай Лин, Дэймон Уитакер, Джереми Хандли

Описание: Глубоко в джунглях Юго-Восточной Азии кровожадный наёмник Себастиан ради острых ощущений охотится на людей и продаёт своих жертв в рабство. В одной из операций он убивает миролюбивого местного шамана Аруна и его семью. Как только он уходит со своей добычей, Арун умирает…лишь для того, чтобы однажды снова возвратиться к жизни. То, что случилось с Аруном, для кого-то может стать подарком, но для него это стало проклятьем — он не может умереть. Полный отчаяния и не в состоянии жить без своей семьи, он кончает жизнь самоубийством. После каждой попытки он умирает, но только для того, чтобы на следующее утро снова возродиться. Пытаясь понять, что же мешает ему умереть, Арун должен отправиться в путешествие по джунглям и городам Азии в поисках тайного способа избавления от бессмертия.

Доп.информация: нет
Бюджет: $3 500 000

Изображение Изображение Изображение

Качество: DVD5 R5
Формат: DVD Video
Видео кодек: MPEG2
Аудио кодек: AC3 (Dolby Digital)
Видео: PAL 16:9 (720x576(0.636)) MPEG Video, 25,000 кадр/сек, 6590 Кбит/сек
Аудио #1: Russian (Dolby AC3, 2 ch) 192 Кбит/сек, 48,0 КГц [Профессиональный (многоголосый закадровый)]

"DVDInfo"
Title:
Size: 4.37 Gb ( 4 582 266 KBytes ) - DVD-5
Enabled regions: 1, 2, 3, 4, 5, 6, 7, 8

VTS_01 :
Play Length: 01:28:40
Video: PAL 16:9 (720x576) VBR
Audio:
Russian (Dolby AC3, 2 ch)

VTS_02 :
Play Length: 00:00:10
Video: PAL 4:3 (720x576) VBR
Audio:
English (Dolby AC3, 2 ch)

Menu Video:
PAL 4:3 (720x576) VBR
Menu Subtitles:
Not specified
Menu English Language Unit :
Root Menu
Свернуть

"MediaInfo"
Общее
Полное имя : G:\Новинки 2011\Naemnik.2010.DVD5\VIDEO_TS\VTS_01_2.VOB
Формат : MPEG-PS
Размер файла : 1024 Мбайт
Продолжительность : 20 м.
Общий поток : 6919 Кбит/сек

Видео
Идентификатор : 224 (0xE0)
Формат : MPEG Video
Версия формата : Version 2
Профиль формата : Main@Main
Параметр BVOP формата : Да
Параметр матрицы формата : По умолчанию
Параметр GOP формата : M=3, N=12
Продолжительность : 20 м.
Битрейт : 6590 Кбит/сек
Максимальный битрейт : 6623 Кбит/сек
Ширина : 720 пикселей
Высота : 576 пикселей
Соотношение сторон : 4:3
Частота кадров : 25,000 кадров/сек
Стандарт вещания : PAL
Цветовое пространство : YUV
Субдискретизация насыщенности : 4:2:0
Битовая глубина : 8 бит
Тип развёртки : Чересстрочная
Порядок развёртки : Нижнее поле первое
Метод сжатия : С потерями
Бит/(Пиксели*Кадры) : 0.636
Размер потока : 975 Мбайт (95%)

Аудио
Идентификатор : 189 (0xBD)-128 (0x80)
Формат : AC-3
Формат/Информация : Audio Coding 3
Расширение режима : CM (complete main)
Режим смешивания : DVD-Video
Продолжительность : 20 м.
Вид битрейта : Постоянный
Битрейт : 192 Кбит/сек
Каналы : 2 канала
Расположение каналов : Front: L R
Частота : 48,0 КГц
Битовая глубина : 16 бит
Метод сжатия : С потерями
Задержка видео : -560 мс.
Размер потока : 28,4 Мбайт (3%)

Свернуть

Скриншоты
Скриншоты меню
Изображение
Изображение
Свернуть
Изображение
Изображение
Изображение
Изображение
Изображение
Изображение
Изображение
Изображение
Свернуть


Изображение Изображение
Не в сети
Профиль  
Начать новую темуОтветить на тему  [ 1 сообщение ] 
Вы не можете начинать темы
Вы не можете отвечать на сообщения
Вы не можете редактировать свои сообщения
Вы не можете удалять свои сообщения