Правила форума

  • В этом разделе создание новых тем Запрещено.
  • Для создания новых тем пользуйтесь Корневым разделом DVD и HD фильмы.
Начать новую темуОтветить на тему  [ 1 сообщение ] 
Торрент файл
Размер: 4.25 GB • Зарегистрирован: 5 лет 1 месяц • Статус: Проверено
Скачан: 49 раз • Желающих скачать: 0 • Поблагодарили: 12 раз
 Раздают: 0  |  0 KB/s  ]   Качают: 0  |  0 KB/s  ] 
 Полного источника не было 3 года 2 месяца 
Сообщения
 Добавлено: 2011-11-09 21:30
Аватара пользователя
Стаж: 5 лет 6 месяцев
Возраст: 30
Сообщений: 353
Спасибок: 7455
Не сдавайся / Restless

Изображение


Год выпуска: 2011
Страна: США (360 Pictures Inc., Columbia Pictures, Imagine Entertainment)
Слоган: «Who do you live for?»
Жанр: драма
Продолжительность: 01:27:24
Перевод: Профессиональный (многоголосый закадровый)
Субтитры: Украинские

Режиссёр: Гас Ван Сент / Gus Van Sant
Сценарист: Джейсон Лью
Продюсер: Брайан Грейзер, Брайс Даллас Ховард, Рон Ховард
Оператор: Харрис Савидес
Композитор: Дэнни Элфман

В ролях: Генри Ли Хоппер, Миа Васиковска, Рё Касэ, Скайлер Фиск, Люсия Струс, Джейн Адамс, Пол Парсон, Thomas Lauderdale, Кристофер Д. Хардер, Морган Ли

Описание: Энок, переживший клиническую смерть и потерявший в автокатастрофе родителей, знакомится на похоронах с Аннабель, и вскоре между молодыми людьми завязываются романтические отношения. Позднее оказывается, что Аннабель смертельно больна и именно поэтому она ходит на похороны чужих людей, на одних из которых и встретила Энока. Юноша решает помочь любимой подготовиться к неизбежному.

Доп.информация: нет
Рейтинг MPAA: Рейтинг PG-13 (Дети до 13 лет допускаются на фильм только с родителями)
Мировая премьера: 6 апреля 2011
Премьера в России: 13 октября 2011, «WDSSPR»
Бюджет: $8 000 000
Кассовые сборы: $158 741

Изображение Изображение Изображение

Качество: DVD5 R5
Формат: DVD Video
Видео кодек: MPEG2
Аудио кодек: AC3 (Dolby Digital)
Видео: PAL 16:9 (720x576(0.623)) MPEG Video, 25,000 кадр/сек, 6459 Кбит/сек
Аудио #1: Russian (Dolby AC3, 6 ch) 384 Кбит/сек, 48,0 КГц [Профессиональный (многоголосый закадровый)]
Субтитры: Украинские

"DVDInfo"
Title: Рабочий
Size: 4.25 Gb ( 4 460 554 KBytes ) - DVD-5
Enabled regions: 1, 2, 3, 4, 5, 6, 7, 8

VTS_01 :
Play Length: 01:27:24
Video: PAL 16:9 (720x576) VBR, Auto Letterboxed
Audio:
Russian (Dolby AC3, 6 ch)
Subtitles:
Ukrainian

Menu Video:
PAL 16:9 (720x576) VBR
Auto Letterboxed
Menu Audio:
Not specified (Dolby AC3, 6 ch)
Menu Subtitles:
Not specified
Menu Russian Language Unit :
Root Menu
Audio Menu
Chapter (PTT) Menu
Свернуть

"MediaInfo"
Общее
Полное имя : G:\Новинки 2011\Ne.sdavaysya.2011.DVD5\VIDEO_TS\VTS_01_1.VOB
Формат : MPEG-PS
Размер файла : 1024 Мбайт
Продолжительность : 20 м.
Общий поток : 6982 Кбит/сек

Видео
Идентификатор : 224 (0xE0)
Формат : MPEG Video
Версия формата : Version 2
Профиль формата : Main@Main
Параметр BVOP формата : Да
Параметр матрицы формата : Выборочная
Продолжительность : 20 м.
Вид битрейта : Переменный
Битрейт : 6459 Кбит/сек
Максимальный битрейт : 9000 Кбит/сек
Ширина : 720 пикселей
Высота : 576 пикселей
Соотношение сторон : 16:9
Частота кадров : 25,000 кадров/сек
Стандарт вещания : PAL
Цветовое пространство : YUV
Субдискретизация насыщенности : 4:2:0
Битовая глубина : 8 бит
Тип развёртки : Прогрессивная
Порядок развёртки : Верхнее поле первое
Метод сжатия : С потерями
Бит/(Пиксели*Кадры) : 0.623
Размер потока : 947 Мбайт (93%)

Аудио
Идентификатор : 189 (0xBD)-128 (0x80)
Формат : AC-3
Формат/Информация : Audio Coding 3
Расширение режима : CM (complete main)
Режим смешивания : DVD-Video
Продолжительность : 20 м.
Вид битрейта : Постоянный
Битрейт : 384 Кбит/сек
Каналы : 6 каналов
Расположение каналов : Front: L C R, Side: L R, LFE
Частота : 48,0 КГц
Битовая глубина : 16 бит
Метод сжатия : С потерями
Размер потока : 56,3 Мбайт (5%)
Свернуть


Скриншоты
Скриншоты меню
Изображение
Изображение
Изображение
Свернуть
Изображение
Изображение
Изображение
Изображение
Изображение
Изображение
Изображение
Изображение
Свернуть


Изображение
Не в сети
Профиль  
Начать новую темуОтветить на тему  [ 1 сообщение ] 
Вы не можете начинать темы
Вы не можете отвечать на сообщения
Вы не можете редактировать свои сообщения
Вы не можете удалять свои сообщения