Правила форума

  • В этом разделе создание новых тем Запрещено.
  • Для создания новых тем пользуйтесь Корневым разделом DVD и HD фильмы.
Начать новую темуОтветить на тему  [ 1 сообщение ] 
Торрент файл
Размер: 4.37 GB • Зарегистрирован: 4 года 7 месяцев • Статус: Проверено
Скачан: 49 раз • Желающих скачать: 0 • Поблагодарили: 10 раз
 Раздают: 0  |  0 KB/s  ]   Качают: 0  |  0 KB/s  ] 
 Полного источника не было 2 дня 16 часов 
Сообщения
 Добавлено: 2012-04-11 06:19
DVD Release Group
Аватара пользователя
Стаж: 7 лет 1 месяц
Сообщений: 3569
Спасибок: 247672
Лайков: 1020
Нежность

La délicatesse


Изображение


Год выпуска: 2011
Страна: Франция
Жанр: Мелодрама, комедия
Продолжительность: 01:44:39
Перевод: Профессиональный (полное дублирование)
Субтитры: Русские
Режиссер: Давид Фонкинос, Стефан Фонкинос
В ролях: Одри Тоту, Одри Флеро, Франсуа Дамиенс, Пио Мармай, Ариан Аскарид, Мелани Бернье, Кристоф Малавуа, Бруно Тодескини, Жозефин де Мо, Марк Китти
Описание: В один прекрасный день сказочно обворожительная Натали целует молодого коллегу Маркуса. Без особых на то причин, просто так. И даже не придает этому никакого значения. Но Маркус ошеломлен: случайный поцелуй перевернул его жизнь! Теперь он не может думать ни о ком, кроме Натали. Молодому человеку предстоит завоевать сердце коллеги, которая его почти не замечает…
Кинопоиск: 7.42 (972)
IMDb: 6.4 (314)
Дополнительно:
Исходник: DVD9 (7.07 Гб) [лицензия, PAL 16:9].
Убрано: Фильм о фильме, трейлеры, фотогалерея, интервью, Russian (Dolby AC3, 2 ch), заставки и предупреждение.
Сжатие фильма 16 % сжатия (без учета ручного перераспределения битрейта, за счет большего сжатия конечных титров).
Работоспособность проверена на софтовом плеере Windows Media и бытовом LG.
Качество: DVD5 (сжатый)
Формат: DVD Video
Видео кодек: MPEG2
Аудио кодек: AC3
Видео: 720х576 25fps 5369Kbps
Аудио: 48kHz 6ch 384Kbps
"MediaInfo"

Формат : MPEG-PS
Размер файла : 1024 Мбайт
Продолжительность : 24 м.
Режим общего битрейта : Переменный
Общий поток : 5869 Кбит/сек

Видео
Идентификатор : 224 (0xE0)
Формат : MPEG Video
Версия формата : Version 2
Профиль формата : Main@Main
Параметр BVOP формата : Да
Параметр матрицы формата : Выборочная
Продолжительность : 24 м.
Вид битрейта : Переменный
Битрейт : 5369 Кбит/сек
Ширина : 720 пикселей
Высота : 576 пикселей
Соотношение сторон : 2,35:1
Частота кадров : 25,000 кадров/сек
Стандарт вещания : PAL
Цветовое пространство : YUV
Субдискретизация насыщенности : 4:2:0
Битовая глубина : 8 бит
Метод сжатия : С потерями
Бит/(Пиксели*Кадры) : 0.518
Размер потока : 937 Мбайт (91%)

Аудио
Идентификатор : 189 (0xBD)-128 (0x80)
Формат : AC-3
Формат/Информация : Audio Coding 3
Расширение режима : CM (complete main)
Режим смешивания : DVD-Video
Продолжительность : 24 м.
Вид битрейта : Постоянный
Битрейт : 384 Кбит/сек
Каналы : 6 каналов
Расположение каналов : Front: L C R, Side: L R, LFE
Частота : 48,0 КГц
Битовая глубина : 16 бит
Метод сжатия : С потерями
Размер потока : 67,0 Мбайт (7%)

Меню
Свернуть

"Скриншоты"

Изображение
Изображение
Изображение
Изображение
Изображение
Изображение
Изображение
Изображение
Изображение
Свернуть

Раздача группы:
Изображение
Не в сети
Профиль  
Начать новую темуОтветить на тему  [ 1 сообщение ] 
Вы не можете начинать темы
Вы не можете отвечать на сообщения
Вы не можете редактировать свои сообщения
Вы не можете удалять свои сообщения