Правила форума

  • В этом разделе создание новых тем Запрещено.
  • Для создания новых тем пользуйтесь Корневым разделом DVD и HD фильмы.
Начать новую темуОтветить на тему  [ 1 сообщение ] 
Торрент файл
Размер: 4.37 GB • Зарегистрирован: 5 лет 8 месяцев • Статус: Проверено
Скачан: 77 раз • Желающих скачать: 0 • Поблагодарили: 15 раз
 Раздают: 0  |  0 KB/s  ]   Качают: 0  |  0 KB/s  ] 
 Полного источника не было 3 года 2 месяца 
Сообщения
 Добавлено: 2011-03-17 19:31
Модератор
Аватара пользователя
Стаж: 8 лет 1 месяц
Возраст: 20
Сообщений: 32130
Спасибок: 98566
Лайков: 80
Неотразимая Тамара / Tamara Drewe

Изображение
Год выпуска: 2010
Страна: Изображение Великобритания
Жанр: комедия
Продолжительность: 01:46:38
Перевод: Оригинальный, Субтитры, Профессиональный (полное дублирование) [лицензия]

Режиссер: Стивен Фрирз / Stephen Frears
Сценарий: Моира Буффини / Moira Buffini, Пози Симмондс / Posy Simmonds
Продюсер: Элисон Оуэн / Alison Owen, Трэйси Сиуорд / Tracey Seaward, Пол Триджбитс / Paul Trijbits, Майя Амселлем / Maya Amsellem, Ханна Фаррелл / Hannah Farrell
Оператор: Бен В. Дэвис / Ben Davis
Композитор: Александр Деспла / Alexandre Desplat

В ролях: Джемма Артертон (Tamara Drewe), Роджер Аллам (Nicholas Hardiment), Билл Кэмп (Glen McCreavy), Доминик Купер (Ben Sergeant), Люк Эванс (Andy Cobb), Тэмсин Грег (Beth Hardiment), Джессика Барден (Jody Long), Шарлотта Кристи (Casey Shaw), Джеймс Ноти (Interviewer), Джон Бетт (Diggory), Жозефин Тэйлор (Zoe), Брона Галлахер (Eustacia)
Дублёры: Ирина Киреева (Tamara Drewe), Михаил Георгиу (Nicholas Hardiment), Вячеслав Баранов (Glen McCreavy), Пётр Иващенко (Ben Sergeant), Александр Гаврилин (Andy Cobb), Ольга Зубкова (Beth Hardiment), Татьяна Шитова (Tess), Марина Бакина (Penny Upminster), Инна Королёва (Caitlin)
Описание: Девица Тамара приезжает в свой родной дом, что находится в английской деревушке. Оказывается, что раньше она была страшненькой и носатой, но после пластической операции превратилась в секс-бомбу. В деревне живут в основном писатели, некоторые из них с трудом сохраняют верность, а некоторые вообще кукуют в полном одиночестве.
Тамара была бы и рада вернуться к своему подростковому увлечению, красавчику Энди, но случай сводит ее с ударником популярной группы, после чего события развиваются самым неожиданным образом.

Раздача: Изображение

Изображение
Изображение
Дополнительная информация
Сборы в мире: $8 984 223
Сборы в США: $560 101
Сборы в России: $175 158
Мировая премьера: 18 мая 2010
Изображение Релиз на DVD: 10 марта 2011, «Новый Диск»
Изготовление релиза...
Исходник взят тут: Неотразимая Тамара / Tamara Drewe (2010) DVD9 [Лицензия]. Удалены предупреждения, заставки, трейлеры к фильмам, доп. материалы и русская 2-х канальная звуковая дорожка, в меню недействующие кнопки удалены, видеодорожка сжата на 1% :) . Обработка и сжатие проводились: DVD ReMake Pro + DVD Rebuilder + CCE, работа с меню Adobe Photoshop и MuxMan DVD
Свернуть
MediaInfo
Общее
Полное имя : K:\Неотразимая.Тамара-Tamara.Drewe.(2010).DVD5\VIDEO_TS\VTS_24_1.VOB
Формат : MPEG-PS
Размер файла : 1024 Мбайт
Продолжительность : 24 м.
Общий поток : 5929 Кбит/сек

Видео
Идентификатор : 224 (0xE0)
Формат : MPEG Video
Версия формата : Version 2
Профиль формата : Main@Main
Параметр BVOP формата : Да
Параметр матрицы формата : По умолчанию
Параметры GOP формата : M=3, N=12
Продолжительность : 24 м.
Вид битрейта : Переменный
Битрейт : 4915 Кбит/сек
Номинальный битрейт : 7500 Кбит/сек
Ширина : 720 пикс.
Высота : 576 пикс.
Соотношение сторон : 16:9
Частота кадров : 25,000 кадр/сек
Стандарт вещания : PAL
Цветовое пространство : YUV
Подвыборка цветности : 4:2:0
Битовая глубина : 8 бит
Тип развёртки : Прогрессивная
Метод сжатия : С потерями
Бит/(Пиксели*Кадры) : 0.474
Размер потока : 849 Мбайт (83%)

Аудио #1
Идентификатор : 129 (0x81)
Формат : AC-3
Формат/Информация : Audio Coding 3
Расширение режима : CM (complete main)
Продолжительность : 24 м.
Вид битрейта : Постоянный
Битрейт : 448 Кбит/сек
Канал(ы) : 6 канала(ов)
Расположение каналов : Front: L C R, Side: L R, LFE
Частота : 48,0 КГц
Битовая глубина : 16 бит
Метод сжатия : С потерями
Размер потока : 77,4 Мбайт (8%)

Аудио #2
Идентификатор : 130 (0x82)
Формат : AC-3
Формат/Информация : Audio Coding 3
Расширение режима : CM (complete main)
Продолжительность : 24 м.
Вид битрейта : Постоянный
Битрейт : 448 Кбит/сек
Канал(ы) : 2 канала(ов)
Расположение каналов : Front: L R
Частота : 48,0 КГц
Битовая глубина : 16 бит
Метод сжатия : С потерями
Размер потока : 77,4 Мбайт (8%)

Текст #1
Идентификатор : 32 (0x20)
Формат : RLE
Формат/Информация : Run-length encoding

Текст #2
Идентификатор : 33 (0x21)
Формат : RLE
Формат/Информация : Run-length encoding

Меню
Свернуть
Свернуть

MPAA: Изображение
Качество: DVD5 (сжатый) R5
Формат: DVD Video
Видео: PAL 16:9, 720 x 576, ~ 5856.73 kbps VBR
Аудио #1: Изображение AC3 5.1, 448 kbps CBR - Russian,
Аудио #2: Изображение AC3 2.0, 192 kbps CBR - English


Скриншоты
Изображение
Изображение
Изображение
Изображение
Изображение
Свернуть
Не в сети
Профиль  
Начать новую темуОтветить на тему  [ 1 сообщение ] 
Вы не можете начинать темы
Вы не можете отвечать на сообщения
Вы не можете редактировать свои сообщения
Вы не можете удалять свои сообщения