Правила форума

  • В этом разделе создание новых тем Запрещено.
  • Для создания новых тем пользуйтесь Корневым разделом DVD и HD фильмы.
Начать новую темуОтветить на тему  [ Сообщений: 6 ] 
Торрент файл
Размер: 6.92 GB • Зарегистрирован: 4 года 1 месяц • Статус: Проверено
Скачан: 390 раз • Желающих скачать: 0 • Поблагодарили: 109 раз
 Раздают: 0  |  0 KB/s  ]   Качают: 0  |  0 KB/s  ] 
 Полного источника не было 1 год 9 месяцев 
Сообщения
 Добавлено: 2012-10-16 06:52
DVD Release Group
Аватара пользователя
Стаж: 7 лет 1 месяц
Сообщений: 3559
Спасибок: 247429
Лайков: 1020
Неудержимые 2

The Expendables 2

«Они вернулись, чтобы зажечь»


Изображение


Год выпуска: 2012
Страна: США
Жанр: Боевик, приключения
Продолжительность: 01:38:05
Перевод: Профессиональный (полное дублирование)
Cубтитры: Нет
Режиссер: Саймон Уэст
В ролях: Сильвестр Сталлоне, Джейсон Стэйтем, Дольф Лундгрен, Жан-Клод Ван Дамм, Терри Крюс, Арнольд Шварценеггер, Брюс Уиллис, Лиам Хемсворт, Нань Юй, Чак Норрис
Описание: Можно ли попробовать изменить расстановку сил в мире? Да, если вы круты как Ван Дамм, у вас есть пять тонн плутония и первоклассные наемники. Стоит ли шутить с Уиллисом, когда вы ему серьезно задолжали? Нет, даже если вы опасны как Сталлоне и у вас за спиной Неудержимые.
Кого позвать на такое плевое дельце, как спасение мира? Пара проверенных ребят, Стэйтем и Норрис, явно не помешают. Пригодятся и малыш Хемсворт, и опасная красотка. Но команда будет неполной без Шварценеггера. Он реально вернулся! Все в сборе. Понеслась…
Кинопоиск: 7.4 (25854)
IMDb: 7.3 (64066)
Дополнительно: Нет
Качество: DVD9
Формат: DVD Video
Видео кодек: MPEG2
Аудио кодек: AC3
Видео: 720х576 25fps 9334Kbps
Аудио: 48kHz 6ch 448Kbps
"MediaInfo"
Формат : MPEG-PS
Размер файла : 1024 Мбайт
Продолжительность : 14 м.
Общий поток : 9980 Кбит/сек

Видео
Идентификатор : 224 (0xE0)
Формат : MPEG Video
Версия формата : Version 2
Профиль формата : Main@Main
Параметр BVOP формата : Да
Параметр матрицы формата : Выборочная
Продолжительность : 14 м.
Битрейт : 9334 Кбит/сек
Максимальный битрейт : 9000 Кбит/сек
Ширина : 720 пикселей
Высота : 576 пикселей
Соотношение сторон : 16:9
Частота кадров : 25,000 кадров/сек
Стандарт вещания : PAL
Цветовое пространство : YUV
Субдискретизация насыщенности : 4:2:0
Битовая глубина : 8 бит
Тип развёртки : Чересстрочная
Порядок развёртки : Верхнее поле первое
Метод сжатия : С потерями
Бит/(Пиксели*Кадры) : 0.900
Размер потока : 958 Мбайт (94%)

Аудио
Идентификатор : 189 (0xBD)-128 (0x80)
Формат : AC-3
Формат/Информация : Audio Coding 3
Расширение режима : CM (complete main)
Режим смешивания : DVD-Video
Продолжительность : 14 м.
Вид битрейта : Постоянный
Битрейт : 448 Кбит/сек
Каналы : 6 каналов
Расположение каналов : Front: L C R, Side: L R, LFE
Частота : 48,0 КГц
Битовая глубина : 16 бит
Метод сжатия : С потерями
Размер потока : 46,0 Мбайт (4%)

Меню
Свернуть

"Скриншоты"
Изображение
Изображение
Изображение
Изображение
Изображение
Изображение
Свернуть

Раздача группы:
Изображение
В сети
Профиль  
 Добавлено: 2012-10-17 15:02 (спустя 1 день 8 часов)
Стаж: 6 лет 3 месяца
Сообщений: 4
Фильм наивный, скорей всего сценарий Сталлоне писал.Если бы не актерский состав выключил бы на 4-ой минуте.Одним словом,они вернулись,чтобы обоср....ться.
Не в сети
Профиль  
 Добавлено: 2012-10-27 09:26 (спустя 9 дней)
Стаж: 7 лет 2 месяца
Сообщений: 91
Нормальный фильм, лучше некоторых вышедших за последнее время. Посмотрел весь, не надоело.
Не в сети
Профиль  
 Добавлено: 2012-10-28 14:38 (спустя 1 день 5 часов)
Стаж: 7 лет 8 месяцев
Возраст: 25
Сообщений: 70
Норм фильм,особенно сцена с Чак Норрисом :-D :-D !Фильм смотриттся легко,звездный состав заслуживает уважения!!!!! :bra_vo: :bra_vo: :ya_hoo_oo:
Не в сети
Профиль  
 Добавлено: 2012-12-23 11:17 (спустя 1 месяц 25 дней)
Стаж: 8 лет 3 месяца
Сообщений: 7
rastor
уважаемый rastor,выложите пожалуйста" неудержимые2 dvd5",спасибо :)
Не в сети
Профиль  
 Добавлено: 2012-12-23 15:03 (спустя 3 часа)
DVD Release Group
Аватара пользователя
Стаж: 7 лет 1 месяц
Сообщений: 3559
Спасибок: 247429
Лайков: 1020
Его светлость
viewtopic.php?f=1743&t=493298
В сети
Профиль  
Начать новую темуОтветить на тему  [ Сообщений: 6 ] 
Вы не можете начинать темы
Вы не можете отвечать на сообщения
Вы не можете редактировать свои сообщения
Вы не можете удалять свои сообщения