Правила форума

  • В этом разделе создание новых тем Запрещено.
  • Для создания новых тем пользуйтесь Корневым разделом DVD и HD фильмы.
Начать новую темуОтветить на тему  [ Сообщений: 3 ] 
Торрент файл
Размер: 4.37 GB • Зарегистрирован: 5 лет 1 месяц • Статус: Проверено
Скачан: 248 раз • Желающих скачать: 0 • Поблагодарили: 22 раза
 Раздают: 0  |  0 KB/s  ]   Качают: 0  |  0 KB/s  ] 
 Полного источника не было 3 года 2 месяца 
Сообщения
 Добавлено: 2011-10-22 16:02
Руководитель релиз-группы
Аватара пользователя
Стаж: 7 лет 5 месяцев
Возраст: 31
Сообщений: 3406
Спасибок: 46729
Лайков: 5
Изображение

Неудовлетворенное сексуальное напряжение
Tension sexual no resuelta


Год выпуска: 2010
Страна: Испания
Слоган: «El amor es un arma de destrucción masiva»
Жанр: комедия
Продолжительность: 01:29:23
Перевод: Профессиональный (полное дублирование)
Режиссер: Мигель Анхель Ламата
Сценарий: Мигель Анхель Ламата
Продюсер: Мария Луиза Гутиеррез, Сантьяго Сегура, Мигель Анхель Ламата
Оператор: Тео Дельгадо
Композитор: Роке Баньос
В ролях: Норма Руис, Пилар Рубио, Салом Джименез, Мигель Анхель Муньос, Феле Мартинес, Амайя Саламанка, Адам Езерски, Сэмюэл Миро, Хоакин Рейс
Описание: В знойной Испании красавицы и красавцы увлеченно разбираются в хитросплетениях своей сексуальной жизни - кто, с кем, когда и к чему приводят мимолетные увлечения.
Изображение
Релиз: Изображение Раздача группы: Изображение
Качество: DVD5 (сжатый)
Формат: DVD Video
Аудио: Dolby AC3, 6 ch, 448 Kbps Russian
Субтитры: русские
Дополнительная информация :
Исходник : DVD9 (6.63 Гб) [лицензия, PAL 16:9]
Убрано : реклама, заставки, предупреждения, Espanol (Dolby AC3, 2 ch)
Сжатие фильма : 21 % сжатия (без учета ручного перераспределения битрейта, за счет большего сжатия конечных титров)
использовались программы
    DVDRemakePro
    Photoshop
    MuxMan
    Rebuilder и CCE (Cinema Craft Encoder), 5 проходов
    Работоспособность проверена на софтовом плеере Windows Media и бытовом LG
Свернуть
DVDInfo
    Title: Neudovletvorennoe.seksualnoe.napryzhenie_2011_DVD5.[R.G.Daredevil]
    Size: 4.37 Gb ( 4 583 988,00 KBytes ) - DVD-5
    Enabled regions: 1, 2, 3, 4, 5, 6, 7, 8

    VTS_01 :
    Play Length: 00:00:00
    Video: PAL 4:3 (720x576) VBR
    Audio:
    Not specified (Dolby AC3, 2 ch)

    VTS_02 :
    Play Length: 00:00:00
    Video: PAL 16:9 (720x576) VBR, Auto Letterboxed
    Audio:
    Not specified (Dolby AC3, 2 ch)

    VTS_03 :
    Play Length: 00:00:00
    Video: PAL 16:9 (720x576) VBR, Auto Letterboxed
    Audio:
    Not specified (Dolby AC3, 2 ch)

    VTS_04 :
    Play Length: 00:00:00
    Video: PAL 4:3 (720x576) VBR
    Audio:
    Not specified (Dolby AC3, 2 ch)

    VTS_05 :
    Play Length: 00:00:00
    Video: PAL 16:9 (720x576) VBR, Auto Letterboxed
    Audio:
    Not specified (Dolby AC3, 2 ch)

    VTS_06 :
    Play Length: 00:00:00
    Video: PAL 16:9 (720x576) VBR, Auto Letterboxed
    Audio:
    Not specified (Dolby AC3, 2 ch)

    VTS_07 :
    Play Length: 00:00:00
    Video: PAL 16:9 (720x576) VBR, Auto Letterboxed
    Audio:
    Not specified (Dolby AC3, 2 ch)

    VTS_08 :
    Play Length: 00:00:00
    Video: PAL 4:3 (720x576) VBR
    Audio:
    Not specified (Dolby AC3, 2 ch)

    VTS_09 :
    Play Length: 00:00:00
    Video: PAL 16:9 (720x576) VBR, Auto Letterboxed
    Audio:
    Not specified (Dolby AC3, 2 ch)

    VTS_10 :
    Play Length: 00:00:00
    Video: PAL 4:3 (720x576) VBR
    Audio:
    Not specified (Dolby AC3, 2 ch)

    VTS_11 :
    Play Length: 00:00:00
    Video: PAL 4:3 (720x576) VBR
    Audio:
    Not specified (Dolby AC3, 2 ch)

    VTS_12 :
    Play Length: 00:00:00
    Video: PAL 4:3 (720x576) VBR
    Audio:
    Not specified (Dolby AC3, 2 ch)

    VTS_13 :
    Play Length: 00:00:00
    Video: PAL 16:9 (720x576) VBR, Auto Letterboxed
    Audio:
    Not specified (Dolby AC3, 2 ch)

    VTS_14 :
    Play Length: 00:00:00
    Video: PAL 4:3 (720x576) VBR
    Audio:
    Not specified (Dolby AC3, 2 ch)

    VTS_15 :
    Play Length: 00:00:00
    Video: PAL 16:9 (720x576) VBR, Auto Letterboxed
    Audio:
    Not specified (Dolby AC3, 2 ch)

    VTS_16 :
    Play Length: 00:00:00
    Video: PAL 16:9 (720x576) VBR, Auto Letterboxed
    Audio:
    Not specified (Dolby AC3, 2 ch)

    VTS_17 :
    Play Length: 00:00:00
    Video: PAL 16:9 (720x576) VBR, Auto Letterboxed
    Audio:
    Not specified (Dolby AC3, 2 ch)

    VTS_18 :
    Play Length: 00:00:00
    Video: PAL 4:3 (720x576) VBR
    Audio:
    Not specified (Dolby AC3, 2 ch)

    VTS_19 :
    Play Length: 00:00:00
    Video: PAL 16:9 (720x576) VBR, Auto Letterboxed
    Audio:
    Not specified (Dolby AC3, 2 ch)

    VTS_20 :
    Play Length: 00:00:00
    Video: PAL 4:3 (720x576) VBR
    Audio:
    Not specified (Dolby AC3, 2 ch)

    VTS_21 :
    Play Length: 00:00:00
    Video: PAL 16:9 (720x576) VBR, Auto Letterboxed
    Audio:
    Not specified (Dolby AC3, 2 ch)

    VTS_22 :
    Play Length: 00:00:00
    Video: PAL 16:9 (720x576) VBR, Auto Letterboxed
    Audio:
    Not specified (Dolby AC3, 2 ch)

    VTS_23 :
    Play Length: 01:29:23
    Video: PAL 16:9 (720x576) VBR, Auto Letterboxed
    Audio:
    Russian (Dolby AC3, 6 ch)
    Subtitles:
    Russian
Свернуть
mediainfo
    Формат : MPEG-PS
    Размер файла : 1024 Мбайт
    Продолжительность : 21 м.
    Режим общего битрейта : Переменный
    Общий поток : 6654 Кбит/сек

    Видео
    Идентификатор : 224 (0xE0)
    Формат : MPEG Video
    Версия формата : Version 2
    Профиль формата : Main@Main
    Параметр BVOP формата : Да
    Параметр матрицы формата : Выборочная
    Продолжительность : 21 м.
    Вид битрейта : Переменный
    Битрейт : 6073 Кбит/сек
    Максимальный битрейт : 9000 Кбит/сек
    Ширина : 720 пикселей
    Высота : 576 пикселей
    Соотношение сторон : 16:9
    Частота кадров : 25,000 кадров/сек
    Стандарт вещания : PAL
    Цветовое пространство : YUV
    Субдискретизация насыщенности : 4:2:0
    Битовая глубина : 8 бит
    Тип развёртки : Чересстрочная
    Порядок развёртки : Верхнее поле первое
    Метод сжатия : С потерями
    Бит/(Пиксели*Кадры) : 0.586
    Размер потока : 935 Мбайт (91%)

    Аудио
    Идентификатор : 189 (0xBD)-128 (0x80)
    Формат : AC-3
    Формат/Информация : Audio Coding 3
    Расширение режима : CM (complete main)
    Режим смешивания : DVD-Video
    Продолжительность : 21 м.
    Вид битрейта : Постоянный
    Битрейт : 448 Кбит/сек
    Каналы : 6 каналов
    Расположение каналов : Front: L C R, Side: L R, LFE
    Частота : 48,0 КГц
    Битовая глубина : 16 бит
    Метод сжатия : С потерями
    Размер потока : 68,9 Мбайт (7%)

    Текст #1
    Идентификатор : 189 (0xBD)-32 (0x20)
    Формат : RLE
    Формат/Информация : Run-length encoding
    Режим смешивания : DVD-Video
    Продолжительность : 21 м.
    Задержка видео : 15 с.

    Текст #2
    Идентификатор : 189 (0xBD)-33 (0x21)
    Формат : RLE
    Формат/Информация : Run-length encoding
    Режим смешивания : DVD-Video
    Продолжительность : 21 м.
    Задержка видео : 15 с.

    Меню
Свернуть
Скриншоты

меню
Изображение
Изображение
Изображение
Изображение
Свернуть
Изображение
Изображение
Изображение
Изображение
Изображение
Свернуть
Не в сети
Профиль  
 Добавлено: 2011-11-05 22:42 (спустя 14 дней)
Аватара пользователя
Стаж: 6 лет 6 месяцев
Сообщений: 77
Сюжет хороший, непредсказуемый!
Не в сети
Профиль  
 Добавлено: 2011-12-22 23:33 (спустя 1 месяц 17 дней)
Стаж: 5 лет 8 месяцев
Сообщений: 2
хороший фильм.Чем-то на "Жестокие игры похож"
Не в сети
Профиль  
Начать новую темуОтветить на тему  [ Сообщений: 3 ] 
Вы не можете начинать темы
Вы не можете отвечать на сообщения
Вы не можете редактировать свои сообщения
Вы не можете удалять свои сообщения