Правила форума

  • В этом разделе создание новых тем Запрещено.
  • Для создания новых тем пользуйтесь Корневым разделом DVD и HD фильмы.
Начать новую темуОтветить на тему  [ Сообщений: 2 ] 
Торрент файл
Размер: 6.67 GB • Зарегистрирован: 4 года 10 месяцев • Статус: Проверено
Скачан: 183 раза • Желающих скачать: 0 • Поблагодарили: 39 раз
 Раздают: 0  |  0 KB/s  ]   Качают: 0  |  0 KB/s  ] 
 Полного источника не было 3 года 2 месяца 
Сообщения
 Добавлено: 2012-01-31 17:30
Аватара пользователя
Стаж: 5 лет 6 месяцев
Возраст: 30
Сообщений: 353
Спасибок: 7455
Неверлэнд / Neverland

Изображение


Год выпуска: 2011
Страна: Великобритания (Parallel Films, Sky Movies Production)
Слоган: «Когда Питер ещё был Пеном, а Хук - капитаном...»
Жанр: фэнтези, приключения
Продолжительность: 02:43:31
Перевод: Профессиональный (многоголосый закадровый) + Оригинальная звуковая дорожка
Субтитры: Русские

Режиссёр: Ник Уиллинг / Nick Willing
Сценарист: Ник Уиллинг / Nick Willing
Продюсер: Алан Молони, Редмонд Моррис, Мэри Аллегуен
Оператор: Шеймас Дизи
Композитор: Ронан Хардиман

В ролях: Рис Иванс, Анна Фрил, Чарльз Дэнс, К’Орианка Килчер, Чарли Роу, Боб Хоскинс, Кира Найтли, Рауль Трухильо, Кэс Анвар

Описание: Питер — сирота. Вместе со своими друзьями он зарабатывает на жизнь тем, что обворовывает прохожих на улице. Джимми Хук собирает таких детей и дает им указание: украсть волшебное сокровище, с помощью которого можно оказаться в другом мире — Neverland. Это такое Королевство. Сюда попадают люди, вырванные из разных времен. В Neverland живут пираты XVIII века, племя индейцев… Пиратами управляет Элизабет Бонни, а вот индейцы пытаются защитить от нее дерево духов. Между ними уже давно ведется странная борьба. В это Королевство попадают и главные герои — Хук, Питер и его друзья.
Доп.информация: нет
Мировая премьера: 4 декабря 2011

Изображение Изображение Изображение

Качество: DVD9 R5
Формат: DVD Video
Видео кодек: MPEG2
Аудио кодек: AC3 (Dolby Digital)
Видео: PAL 16:9 (720x576(0.441)) MPEG Video, 25,000 кадр/сек, 4575 Кбит/сек
Аудио #1: Russian (Dolby AC3, 6 ch) 256 Кбит/сек, 48,0 КГц [Профессиональный (многоголосый закадровый)]
Аудио #2: English (Dolby AC3, 6 ch) 256 Кбит/сек, 48,0 КГц [Оригинальная звуковая дорожка]
Субтитры: Русские

"DVDInfo"
Title:
Size: 6.67 Gb ( 6 989 498 KBytes ) - DVD-9
Enabled regions: 1, 2, 3, 4, 5, 6, 7, 8

VTS_01 :
Play Length: 00:00:10
Video: PAL 16:9 (720x576) VBR, Auto Pan&Scan, Auto Letterboxed

VTS_02 :
Play Length: 00:00:06
Video: PAL 16:9 (720x576) VBR, Auto Pan&Scan, Auto Letterboxed

VTS_03 :
Play Length: 02:43:31
Video: PAL 16:9 (720x576) VBR, Auto Pan&Scan, Auto Letterboxed
Audio:
Not specified (Dolby AC3, 6 ch)
Not specified (Dolby AC3, 6 ch)
Subtitles:
Not specified
Not specified

VTS_04 :
Play Length: 00:02:29
Video: PAL 16:9 (720x576) VBR, Auto Pan&Scan, Auto Letterboxed
Audio:
Not specified (Dolby AC3, 2 ch)
Not specified (Dolby AC3, 2 ch)
Subtitles:
Not specified
Not specified

VTS_05 :
Play Length: 00:02:29
Video: PAL 16:9 (720x576) VBR, Auto Pan&Scan, Auto Letterboxed
Audio:
Not specified (Dolby AC3, 2 ch)
Not specified (Dolby AC3, 2 ch)
Subtitles:
Not specified
Not specified

Menu Video:
PAL 16:9 (720x576) VBR
Auto Pan&Scan, Auto Letterboxed
Menu Russian Language Unit :
Root Menu
Свернуть

"MediaInfo"
Общее
Полное имя : G:\Новинки 2012\Neverlend.2011.DVD9\VIDEO_TS\VTS_03_1.VOB
Формат : MPEG-PS
Размер файла : 1024 Мбайт
Продолжительность : 27 м.
Режим общего битрейта : Переменный
Общий поток : 5190 Кбит/сек

Видео
Идентификатор : 224 (0xE0)
Формат : MPEG Video
Версия формата : Version 2
Профиль формата : Main@Main
Параметр BVOP формата : Да
Параметр матрицы формата : Выборочная
Параметр GOP формата : M=3, N=15
Продолжительность : 27 м.
Вид битрейта : Переменный
Битрейт : 4575 Кбит/сек
Максимальный битрейт : 8400 Кбит/сек
Ширина : 720 пикселей
Высота : 576 пикселей
Соотношение сторон : 16:9
Частота кадров : 25,000 кадров/сек
Стандарт вещания : PAL
Цветовое пространство : YUV
Субдискретизация насыщенности : 4:2:0
Битовая глубина : 8 бит
Тип развёртки : Чересстрочная
Порядок развёртки : Верхнее поле первое
Метод сжатия : С потерями
Бит/(Пиксели*Кадры) : 0.441
Размер потока : 903 Мбайт (88%)

Аудио #1
Идентификатор : 189 (0xBD)-128 (0x80)
Формат : AC-3
Формат/Информация : Audio Coding 3
Расширение режима : CM (complete main)
Режим смешивания : DVD-Video
Продолжительность : 27 м.
Вид битрейта : Постоянный
Битрейт : 256 Кбит/сек
Каналы : 6 каналов
Расположение каналов : Front: L C R, Side: L R, LFE
Частота : 48,0 КГц
Битовая глубина : 16 бит
Метод сжатия : С потерями
Размер потока : 50,5 Мбайт (5%)

Аудио #2
Идентификатор : 189 (0xBD)-129 (0x81)
Формат : AC-3
Формат/Информация : Audio Coding 3
Расширение режима : CM (complete main)
Режим смешивания : DVD-Video
Продолжительность : 27 м.
Вид битрейта : Постоянный
Битрейт : 256 Кбит/сек
Каналы : 6 каналов
Расположение каналов : Front: L C R, Side: L R, LFE
Частота : 48,0 КГц
Битовая глубина : 16 бит
Метод сжатия : С потерями
Размер потока : 50,5 Мбайт (5%)

Текст
Идентификатор : 189 (0xBD)-33 (0x21)
Формат : RLE
Формат/Информация : Run-length encoding
Режим смешивания : DVD-Video
Продолжительность : 27 м.
Задержка видео : 5 с. 920 мс.

Свернуть

Скриншоты
Скриншоты меню
Изображение
Изображение
Изображение
Свернуть
Изображение
Изображение
Изображение
Изображение
Изображение
Изображение
Изображение
Изображение
Свернуть


ИзображениеИзображение
Не в сети
Профиль  
 Добавлено: 2012-02-04 19:50 (спустя 4 дня)
Кинокомментатор
Аватара пользователя
Стаж: 9 лет 1 месяц
Сообщений: 1332
Лайков: 54
оооочень скучно... чуть не заснул... половину просмотрел, вторую не буду)
_________________
Я ВКонтакте
Не в сети
Профиль  
Начать новую темуОтветить на тему  [ Сообщений: 2 ] 
Вы не можете начинать темы
Вы не можете отвечать на сообщения
Вы не можете редактировать свои сообщения
Вы не можете удалять свои сообщения