Правила форума

  • В этом разделе создание новых тем Запрещено.
  • Для создания новых тем пользуйтесь Корневым разделом DVD и HD фильмы.
Начать новую темуОтветить на тему  [ Сообщений: 2 ] 
Торрент файл
Размер: 4.37 GB • Зарегистрирован: 4 года 3 месяца • Статус: Проверено
Скачан: 24 раза • Желающих скачать: 0 • Поблагодарили: 8 раз
 Раздают: 0  |  0 KB/s  ]   Качают: 0  |  0 KB/s  ] 
 Полного источника не было 3 года 2 месяца 
Сообщения
 Добавлено: 2012-08-18 12:30
Руководитель релиз-группы
Аватара пользователя
Стаж: 7 лет 4 месяца
Возраст: 31
Сообщений: 3407
Спасибок: 46729
Лайков: 5
Изображение

Невидимая
Die Unsichtbare


Год выпуска: 2011
Страна: Германия, Франция
Жанр: драма
Продолжительность: 01:48:32
Перевод: Профессиональный (многоголосый, закадровый)
Режиссер: Кристиан Швохов
В ролях: Стайн Фишер Кристенсен, Ульрих Нойтен, Дагмар Манцель, Кристина Дрехслер, Рональд Зерфельд, Анна Мария Мюэ, Ульрих Маттес, Маттиас Вейденхёфер, Гудрун Ландгребе, Коринна Харфух
Описание: История 21-летней Жозефины «Файн», начинающей актрисы. Для такой профессии героиня очень застенчива, стеснительна и неуверенна в себе. Вместе с тем, к ее большому удивлению, известный театральный режиссер Каспар Фридман предлагает ей главную роль в новой постановке. Речь идет о роли Камиллы, экстраверта, сексуально требовательной, но очень хрупкой личности.
Эмоции девушки на подъеме. Она понимает, что для того, чтобы сыграть хорошо, необходимо много репетировать. В качестве «репетиций» она начинает соблазнять соседа Иоахима, одновременно все больше удаляясь от своей больной сестры, которая болезненно реагирует на это. Во время проб Файн все больше попадает под влияние Фридмана, он вызывает в ней гневные чувства, о которых героиня даже не подозревала. Эта напряженность все более нарастает, грозя разрушить внутренний мир молодой женщины.
Изображение
Релиз: Изображение Раздача группы: Изображение
Качество: DVD5 (сжатый)
Формат: DVD Video
Видео: MPEG2; PAL 16:9 (720x576)
Аудио: Dolby AC3, 2 ch, 384 Kbps Russian
Субтитры: нет
Дополнительная информация :
Исходник : DVD9 (4.9 Гб) [лицензия, PAL 16:9]
Убрано : часть анонсов
Сжатие фильма : нет
Изображение
использовались программы
    DVDRemakePro
    Photoshop
    MuxMan
    Работоспособность проверена на софтовом плеере Windows Media и бытовом LG
Свернуть
DVDInfo
    Title: Nevidimaya_2011_DVD5.[R.G.Daredevil]
    Size: 4.37 Gb ( 4 579 794,00 KBytes ) - DVD-5
    Enabled regions: 1, 2, 3, 4, 5, 6, 7, 8

    VTS_01 :
    Play Length: 00:00:15
    Video: PAL 4:3 (720x576) VBR
    Audio:
    Not specified (Dolby AC3, 2 ch)

    VTS_02 :
    Play Length: 00:00:08
    Video: PAL 16:9 (720x576) VBR, Auto Letterboxed
    Audio:
    Not specified (Dolby AC3, 2 ch)

    VTS_03 :
    Play Length: 00:00:13
    Video: PAL 16:9 (720x576) VBR, Auto Letterboxed
    Audio:
    Not specified (Dolby AC3, 2 ch)

    VTS_04 :
    Play Length: 00:00:00
    Video: PAL 4:3 (720x576) VBR
    Audio:
    Not specified (Dolby AC3, 2 ch)

    VTS_05 :
    Play Length: 00:00:00
    Video: PAL 16:9 (720x576) VBR, Auto Letterboxed
    Audio:
    Not specified (Dolby AC3, 2 ch)

    VTS_06 :
    Play Length: 00:01:12
    Video: PAL 16:9 (720x576) VBR, Auto Letterboxed
    Audio:
    Not specified (Dolby AC3, 2 ch)

    VTS_07 :
    Play Length: 00:00:00
    Video: PAL 4:3 (720x576) VBR
    Audio:
    Not specified (Dolby AC3, 2 ch)

    VTS_08 :
    Play Length: 00:00:00
    Video: PAL 16:9 (720x576) VBR, Auto Letterboxed
    Audio:
    Not specified (Dolby AC3, 2 ch)

    VTS_09 :
    Play Length: 00:00:00
    Video: PAL 16:9 (720x576) VBR, Auto Letterboxed
    Audio:
    Not specified (Dolby AC3, 2 ch)

    VTS_10 :
    Play Length: 00:00:00
    Video: PAL 16:9 (720x576) VBR, Auto Letterboxed
    Audio:
    Not specified (Dolby AC3, 2 ch)

    VTS_11 :
    Play Length: 00:02:33
    Video: PAL 16:9 (720x576) VBR, Auto Letterboxed
    Audio:
    Not specified (Dolby AC3, 2 ch)

    VTS_12 :
    Play Length: 00:00:01
    Video: PAL 16:9 (720x576) VBR, Auto Letterboxed
    Audio:
    Not specified (Dolby AC3, 2 ch)

    VTS_13 :
    Play Length: 01:48:32
    Video: PAL 16:9 (720x576) VBR, Auto Letterboxed
    Audio:
    Russian (Dolby AC3, 2 ch)

    VTS_14 :
    Play Length: 00:00:01
    Video: PAL 16:9 (720x576) VBR, Auto Letterboxed
    Audio:
    Not specified (Dolby AC3, 2 ch)
Свернуть
mediainfo
    Формат : MPEG-PS
    Размер файла : 1024 Мбайт
    Продолжительность : 26 м.
    Общий поток : 5489 Кбит/сек

    Видео
    Идентификатор : 224 (0xE0)
    Формат : MPEG Video
    Версия формата : Version 2
    Профиль формата : Main@Main
    Параметр BVOP формата : Да
    Параметр матрицы формата : Выборочная
    Продолжительность : 26 м.
    Битрейт : 4996 Кбит/сек
    Максимальный битрейт : 5000 Кбит/сек
    Ширина : 720 пикселей
    Высота : 576 пикселей
    Соотношение сторон : 16:9
    Частота кадров : 25,000 кадров/сек
    Стандарт вещания : PAL
    Цветовое пространство : YUV
    Субдискретизация насыщенности : 4:2:0
    Битовая глубина : 8 бит
    Тип развёртки : Чересстрочная
    Порядок развёртки : Верхнее поле первое
    Метод сжатия : С потерями
    Бит/(Пиксели*Кадры) : 0.482
    Размер потока : 932 Мбайт (91%)

    Аудио
    Идентификатор : 189 (0xBD)-128 (0x80)
    Формат : AC-3
    Формат/Информация : Audio Coding 3
    Расширение режима : CM (complete main)
    Режим смешивания : DVD-Video
    Продолжительность : 26 м.
    Вид битрейта : Постоянный
    Битрейт : 384 Кбит/сек
    Каналы : 2 канала
    Расположение каналов : Front: L R
    Частота : 48,0 КГц
    Битовая глубина : 16 бит
    Метод сжатия : С потерями
    Размер потока : 71,6 Мбайт (7%)

    Меню
Свернуть
Скриншоты

меню
Изображение
Изображение
Изображение
Свернуть
Изображение
Изображение
Изображение
Изображение
Свернуть
Не в сети
Профиль  
 Добавлено: 2012-08-20 15:48 (спустя 2 дня 3 часа)
Аватара пользователя
Стаж: 6 лет 5 месяцев
Сообщений: 19944
Спасибок: 721
Лайков: 460
Девушка? :du_ma_et:
_________________
It was I'am ... :jn_pu_sk:
Медали и Ордена
ИзображениеИзображение
Свернуть
Не в сети
Профиль  
Начать новую темуОтветить на тему  [ Сообщений: 2 ] 
Вы не можете начинать темы
Вы не можете отвечать на сообщения
Вы не можете редактировать свои сообщения
Вы не можете удалять свои сообщения