Правила форума

  • В этом разделе создание новых тем Запрещено.
  • Для создания новых тем пользуйтесь Корневым разделом DVD и HD фильмы.
Начать новую темуОтветить на тему  [ Сообщений: 3 ] 
Торрент файл
Размер: 4.36 GB • Зарегистрирован: 3 года 5 месяцев • Статус: Проверено
Скачан: 131 раз • Желающих скачать: 0 • Поблагодарили: 43 раза
 Раздают: 0  |  0 KB/s  ]   Качают: 0  |  0 KB/s  ] 
 Полного источника не было 8 часов 
Сообщения
 Добавлено: 2013-06-12 21:06
DVD Release Group
Аватара пользователя
Стаж: 7 лет 1 месяц
Сообщений: 3549
Спасибок: 247054
Лайков: 1018
Никто не выжил

No One Lives


Изображение


Год выпуска: 2012
Страна: США
Жанр: Ужасы, триллер
Продолжительность: 01:24:02
Перевод: Профессиональный (полное дублирование)
Субтитры: Русские
Режиссер: Рюхэй Китамура
В ролях: Люк Эванс, Эделейд Клеменс, Дерек Магияр, Бо Напп, Америка Оливо, Ли Тергесен, Линдси Шоу
Описание: Безжалостные преступники спрятали в заброшенном доме двух заложников, юношу и девушку. Однако через некоторое время головорезы находят заложницу мертвой и неожиданно понимают, что юноша не так прост, как казался на первый взгляд. И теперь это он на них охотится…
Изображение Изображение
Дополнительно: Создатели и исполнители, Галерея, Смотрите на DVD
Sample:
http://multi-up.com/874611
Качество: DVD5
Формат: DVD Video
Видео кодек: MPEG2
Аудио кодек: AC3
Видео: 720х576 25fps 5665Kbps
Аудио:
Аудио Rus: 48kHz 6ch 448Kbps
Аудио Eng: 48kHz 6ch 448Kbps
"MediaInfo"
Формат : MPEG-PS
Размер файла : 1024 Мбайт
Продолжительность : 21 м.
Режим общего битрейта : Переменный
Общий поток : 6694 Кбит/сек

Видео
Идентификатор : 224 (0xE0)
Формат : MPEG Video
Версия формата : Version 2
Профиль формата : Main@Main
Параметр BVOP формата : Да
Параметр матрицы формата : По умолчанию
Параметр GOP формата : M=3, N=12
Продолжительность : 21 м.
Вид битрейта : Переменный
Битрейт : 5665 Кбит/сек
Максимальный битрейт : 8000 Кбит/сек
Ширина : 720 пикселей
Высота : 576 пикселей
Соотношение сторон : 16:9
Частота кадров : 25,000 кадров/сек
Стандарт вещания : PAL
Цветовое пространство : YUV
Субдискретизация насыщенности : 4:2:0
Битовая глубина : 8 бит
Тип развёртки : Прогрессивная
Метод сжатия : С потерями
Бит/(Пиксели*Кадры) : 0.546
Размер потока : 867 Мбайт (85%)

Аудио #1
Идентификатор : 189 (0xBD)-128 (0x80)
Формат : AC-3
Формат/Информация : Audio Coding 3
Расширение режима : CM (complete main)
Режим смешивания : DVD-Video
Продолжительность : 21 м.
Вид битрейта : Постоянный
Битрейт : 448 Кбит/сек
Каналы : 6 каналов
Расположение каналов : Front: L C R, Side: L R, LFE
Частота : 48,0 КГц
Битовая глубина : 16 бит
Метод сжатия : С потерями
Размер потока : 68,5 Мбайт (7%)

Аудио #2
Идентификатор : 189 (0xBD)-129 (0x81)
Формат : AC-3
Формат/Информация : Audio Coding 3
Расширение режима : CM (complete main)
Режим смешивания : DVD-Video
Продолжительность : 21 м.
Вид битрейта : Постоянный
Битрейт : 448 Кбит/сек
Каналы : 6 каналов
Расположение каналов : Front: L C R, Side: L R, LFE
Частота : 48,0 КГц
Битовая глубина : 16 бит
Метод сжатия : С потерями
Размер потока : 68,5 Мбайт (7%)

Текст
Идентификатор : 189 (0xBD)-32 (0x20)
Формат : RLE
Формат/Информация : Run-length encoding
Режим смешивания : DVD-Video

Меню
Свернуть

"Скриншоты"
Изображение
Изображение
Изображение
Изображение
Изображение
Изображение
Изображение
Изображение
Изображение
Изображение
Свернуть

Раздача группы:
Изображение
Не в сети
Профиль  
 Добавлено: 2013-06-16 22:46 (спустя 4 дня)
Кинокомментатор
Аватара пользователя
Стаж: 9 лет 1 месяц
Сообщений: 1332
Лайков: 54
на мой взгляд кино очень хорошо! мир ублюдков) и одно светлое пятнышко...) злодей как что то неизбежное и непоколебимое... ужс реально) может тоже... хотя нет) это могут читать дети:)
8/10 за идею
_________________
Я ВКонтакте
Не в сети
Профиль  
 Добавлено: 2013-07-18 16:53 (спустя 1 месяц 1 день)
Стаж: 7 лет 10 месяцев
Сообщений: 5
Море крови, идеи - ноль :(
Не в сети
Профиль  
Начать новую темуОтветить на тему  [ Сообщений: 3 ] 
Вы не можете начинать темы
Вы не можете отвечать на сообщения
Вы не можете редактировать свои сообщения
Вы не можете удалять свои сообщения