Правила форума

  • В этом разделе создание новых тем Запрещено.
  • Для создания новых тем пользуйтесь Корневым разделом DVD и HD фильмы.
Начать новую темуОтветить на тему  [ Сообщений: 2 ] 
Торрент файл
Размер: 7.78 GB • Зарегистрирован: 2 года 10 месяцев • Статус: Проверено
Скачан: 5 раз • Желающих скачать: 0 • Поблагодарили: 3 раза
 Раздают: 0  |  0 KB/s  ]   Качают: 0  |  0 KB/s  ] 
 Полного источника не было 2 года 3 месяца 
Сообщения
 Добавлено: 2014-02-01 10:49
Книголюб
Аватара пользователя
Стаж: 7 лет 2 месяца
Сообщений: 2823
Спасибок: 48828
Лайков: 73
Ночь
Une nuit

Изображение


Год выпуска: 2012
Страна: Франция
Жанр: драма, криминал
Продолжительность: 01:40:30
Перевод: Профессиональное (двухголосое) [Нтв+]

Режиссёр: Филипп Лефевр
В ролях: Рошди Зем, Сара Форестье, Самюэль Ле Бьян, Грегори Фетусси, Жан-Пьер Мартен, Жан-Поль Мюэль, Софи Брустал, Жеральд Ларош, Элен Сёзаре, Камель Лабруди
Описание: Выйдя на ночное дежурство, капитан отдела полиции нравов в компании новой напарницы-водителя выясняет, кто донёс на него в отдел внутренних расследований, обвинив в коррумпированности…
Изображение 6.00027

Качество: HQDRip 1080p
Формат: MKV
Видео кодек: H.264
Аудио кодек: AC3 (Dolby Digital)
Видео: 1920x816 24fps 9 385 Kbps
Аудио #1: Russian: Dolby AC3 48000Hz stereo192 Kbps1
Аудио #2: French:DTS 48000Hz 6ch 510 Kbps
MediaInfo
General
Unique ID : 176391387635306385323142935034902535644 (0x84B3BEDB9223499F8642C56AD91EDDDC)
Complete name : K:\Torrent\Noch.mkv
Format : Matroska
Format version : Version 4 / Version 2
File size : 7.78 GiB
Duration : 1h 40mn
Overall bit rate : 11.1 Mbps
Movie name : Release Group CINEMANIA
Encoded date : UTC 2014-01-30 23:35:55
Writing application : mkvmerge v6.7.0 ('Back to the Ground') 64bit built on Jan 8 2014 15:10:52
Writing library : libebml v1.3.0 + libmatroska v1.4.1

Video
ID : 1
Format : AVC
Format/Info : Advanced Video Codec
Format profile : High@L4.1
Format settings, CABAC : Yes
Format settings, ReFrames : 5 frames
Codec ID : V_MPEG4/ISO/AVC
Duration : 1h 40mn
Bit rate : 9 385 Kbps
Width : 1 920 pixels
Height : 816 pixels
Display aspect ratio : 2.35:1
Frame rate : 24.000 fps
Color space : YUV
Chroma subsampling : 4:2:0
Bit depth : 8 bits
Scan type : Progressive
Bits/(Pixel*Frame) : 0.250
Stream size : 6.44 GiB (83%)
Title : Release Group CINEMANIA
Writing library : x264 core 122 r2184 5c85e0a
Encoding settings : cabac=1 / ref=5 / deblock=1:0:0 / analyse=0x3:0x113 / me=umh / subme=8 / psy=1 / psy_rd=1.00:0.00 / mixed_ref=1 / me_range=16 / chroma_me=1 / trellis=1 / 8x8dct=1 / cqm=0 / deadzone=21,11 / fast_pskip=1 / chroma_qp_offset=-2 / threads=12 / sliced_threads=0 / nr=0 / decimate=1 / interlaced=0 / bluray_compat=0 / constrained_intra=0 / bframes=3 / b_pyramid=2 / b_adapt=2 / b_bias=0 / direct=3 / weightb=1 / open_gop=0 / weightp=2 / keyint=240 / keyint_min=24 / scenecut=40 / intra_refresh=0 / rc_lookahead=50 / rc=2pass / mbtree=1 / bitrate=9385 / ratetol=1.0 / qcomp=0.60 / qpmin=0 / qpmax=69 / qpstep=4 / cplxblur=20.0 / qblur=0.5 / ip_ratio=1.40 / aq=1:1.00
Language : English
Default : Yes
Forced : No

Audio #1
ID : 2
Format : AC-3
Format/Info : Audio Coding 3
Mode extension : CM (complete main)
Codec ID : A_AC3
Duration : 1h 40mn
Bit rate mode : Constant
Bit rate : 192 Kbps
Channel(s) : 2 channels
Channel positions : Front: L R
Sampling rate : 48.0 KHz
Bit depth : 16 bits
Compression mode : Lossy
Stream size : 138 MiB (2%)
Title : Нтв+
Language : Russian
Default : Yes
Forced : Yes

Audio #2
ID : 3
Format : DTS
Format/Info : Digital Theater Systems
Codec ID : A_DTS
Duration : 1h 40mn
Bit rate mode : Constant
Bit rate : 1 510 Kbps
Channel(s) : 6 channels
Channel positions : Front: L C R, Side: L R, LFE
Sampling rate : 48.0 KHz
Bit depth : 24 bits
Compression mode : Lossy
Stream size : 1.06 GiB (14%)
Language : French
Default : No
Forced : No

Menu
00:00:00.000 : en:00:00:00.000
00:08:49.125 : en:00:08:49.125
00:17:56.500 : en:00:17:56.500
00:26:39.083 : en:00:26:39.083
00:34:56.792 : en:00:34:56.792
00:43:21.000 : en:00:43:21.000
00:52:40.417 : en:00:52:40.417
01:01:05.875 : en:01:01:05.875
01:11:11.000 : en:01:11:11.000
01:19:11.917 : en:01:19:11.917
01:26:40.417 : en:01:26:40.417
01:36:55.750 : en:01:36:55.750


Свернуть

Скриншоты
Изображение
Изображение
Изображение
Изображение
Свернуть
Не в сети
Профиль  
 Добавлено: 2014-02-01 17:20 (спустя 6 часов)
DVD Release Group
Аватара пользователя
Стаж: 7 лет 9 месяцев
Сообщений: 364
Спасибок: 3087
Лайков: 10
И нафига эта «матрешка» в разделе DVD?! :du_ma_et:
Не в сети
Профиль  
Начать новую темуОтветить на тему  [ Сообщений: 2 ] 
Вы не можете начинать темы
Вы не можете отвечать на сообщения
Вы не можете редактировать свои сообщения
Вы не можете удалять свои сообщения