Правила форума

  • В этом разделе создание новых тем Запрещено.
  • Для создания новых тем пользуйтесь Корневым разделом DVD и HD фильмы.
Начать новую темуОтветить на тему  [ Сообщений: 5 ] 
Торрент файл
Размер: 5.73 GB • Зарегистрирован: 2 года 4 месяца • Статус: Проверено
Скачан: 13 раз • Желающих скачать: 0 • Поблагодарили: 4 раза
 Раздают: 0  |  0 KB/s  ]   Качают: 0  |  0 KB/s  ] 
 Полного источника не было 9 часов 
Сообщения
 Добавлено: 2014-07-25 13:37
Руководитель релиз-группы
Аватара пользователя
Стаж: 7 лет 2 месяца
Возраст: 4
Сообщений: 5213
Спасибок: 19350
Лайков: 2312
Обещание / A Promise

Изображение


Год выпуска: 2013
Страна: Франция, Бельгия
Жанр: Драма, мелодрама
Продолжительность: 01:34:22
Перевод: Профессиональный (многоголосый закадровый)
Субтитры: Русские

Режиссёр: Патрис Леконт
Сценарист: Патрис Леконт, Жером Тоннер, Стефан Цвейг
Продюсер: Оливье Делбоск, Марк Миссонье, Кристин де Жекель, ...
Оператор: Эдуарду Серра
Композитор: Габриэль Яред
В ролях: Ребекка Холл, Алан Рикман, Ричард Мэдден, Тоби Мюррэй, Мэгги Стид, Шеннон Тарбет, Жан-Луи Сбилье, Сара Мессенс, Джонатан Соудон, Кэролайн Доннелли
Описание: Пожилой магнат нанимает молодого секретаря. Юноша влюбляется в красавицу жену. Молодые люди изо всех сил пытаются противостоять искушению и сдержать обещание.


Релиз и раздача группы: Изображение

Качество: DVD5
Формат: DVD Video
Видео кодек: MPEG2
Аудио кодек: AC3 (Dolby Digital)
Видео: 720х576 25fps 5131Kbps
Аудио #1: 448 Kbps 6 channels 48.0 KHz[Профессиональный (многоголосый закадровый)]
Аудио #2 448 Kbps 6 channels 48.0 KHz
Скриншоты
Изображение
Изображение
Изображение
Изображение
Изображение
Свернуть


MI
Video
ID : 224 (0xE0)
Format : MPEG Video
Format version : Version 2
Format profile : Main@Main
Format settings, BVOP : Yes
Format settings, Matrix : Default
Format settings, GOP : M=3, N=12
Duration : 20mn 19s
Bit rate mode : Variable
Bit rate : 6 005 Kbps
Maximum bit rate : 9 500 Kbps
Width : 720 pixels
Height : 576 pixels
Display aspect ratio : 16:9
Frame rate : 25.000 fps
Standard : PAL
Color space : YUV
Chroma subsampling : 4:2:0
Bit depth : 8 bits
Scan type : Progressive
Compression mode : Lossy
Bits/(Pixel*Frame) : 0.579
Stream size : 873 MiB (85%)

Audio #1
ID : 189 (0xBD)-128 (0x80)
Format : AC-3
Format/Info : Audio Coding 3
Mode extension : CM (complete main)
Muxing mode : DVD-Video
Duration : 20mn 19s
Bit rate mode : Constant
Bit rate : 448 Kbps
Channel(s) : 6 channels
Channel positions : Front: L C R, Side: L R, LFE
Sampling rate : 48.0 KHz
Bit depth : 16 bits
Compression mode : Lossy
Delay relative to video : -576ms
Stream size : 65.1 MiB (6%)

Audio #2
ID : 189 (0xBD)-129 (0x81)
Format : AC-3
Format/Info : Audio Coding 3
Mode extension : CM (complete main)
Muxing mode : DVD-Video
Duration : 20mn 19s
Bit rate mode : Constant
Bit rate : 448 Kbps
Channel(s) : 6 channels
Channel positions : Front: L C R, Side: L R, LFE
Sampling rate : 48.0 KHz
Bit depth : 16 bits
Compression mode : Lossy
Delay relative to video : -576ms
Stream size : 65.1 MiB (6%)

Text
ID : 189 (0xBD)-32 (0x20)
Format : RLE
Format/Info : Run-length encoding
Muxing mode : DVD-Video
Duration : 20mn 17s
Delay relative to video : 1s 480ms

Menu
Свернуть
Не в сети
Профиль  
 Добавлено: 2014-07-28 08:20 (спустя 2 дня 18 часов)
DVD Release Group
Аватара пользователя
Стаж: 7 лет 1 месяц
Сообщений: 3559
Спасибок: 247365
Лайков: 1018
zima-letoru
DVD9
Не в сети
Профиль  
 Добавлено: 2014-10-13 18:58 (спустя 2 месяца 16 дней)
Стаж: 7 лет 9 месяцев
Сообщений: 120
Лайков: 7
Вторую неделю никак не докачаю 600 Мб. Может, кто раздаст?
Не в сети
Профиль  
 Добавлено: 2014-10-19 17:24 (спустя 5 дней)
Стаж: 7 лет 9 месяцев
Сообщений: 120
Лайков: 7
Третью неделю не раздают!
Не в сети
Профиль  
 Добавлено: 2014-10-20 19:18 (спустя 1 день 1 час)
Стаж: 7 лет 9 месяцев
Сообщений: 120
Лайков: 7
Наконец-то! Спасибо.
Не в сети
Профиль  
Начать новую темуОтветить на тему  [ Сообщений: 5 ] 
Вы не можете начинать темы
Вы не можете отвечать на сообщения
Вы не можете редактировать свои сообщения
Вы не можете удалять свои сообщения