Правила форума

  • В этом разделе создание новых тем Запрещено.
  • Для создания новых тем пользуйтесь Корневым разделом DVD и HD фильмы.
Начать новую темуОтветить на тему  [ 1 сообщение ] 
Торрент файл
Размер: 4.37 GB • Зарегистрирован: 5 лет 6 месяцев • Статус: Проверено
Скачан: 506 раз • Желающих скачать: 0 • Поблагодарили: 89 раз
 Раздают: 0  |  0 KB/s  ]   Качают: 0  |  0 KB/s  ] 
 Полного источника не было 1 год 11 месяцев 
Сообщения
 Добавлено: 2011-05-17 18:18
Модератор
Аватара пользователя
Стаж: 8 лет 1 месяц
Возраст: 20
Сообщений: 32130
Спасибок: 98569
Лайков: 80
Изображение

Области тьмы / Limitless


Год выпуска: 2011
Страна: США
Слоган: «Что если одна таблетка NZT сделает тебя богатым и могущественным? Узнай о побочных эффектах.»

Жанр: фантастика, триллер, детектив
Продолжительность: 01:40:26
Перевод: Профессиональный (полное дублирование) [лицензия]


Бюджет: $26 000 000
Сборы в США: $77 563 588
Сборы в России: $6 199 604
Сборы в мире: $139 463 588

Мировая премьера: 8 марта 2011
Релиз на DVD: 19 мая 2011, «CP-Digital»
Релиз на Blu-ray: 19 мая 2011, «CP-Digital»
Описание: Нью-йоркский писатель Эдди, желая преодолеть чёрную полосу в жизни, принимает засекреченный препарат под названием NZT. Таблетка выводит мозг парня на работу в нереальной мощности. Этот творческий наркотик меняет всю жизнь Эдди, за короткий срок он зарабатывает кучу денег, но скоро начинает страдать от зловещих побочных эффектов препарата. А когда пытается найти других NZT-гениев, чтобы понять, как можно справиться с этим пристрастием, он узнает страшную правду...
Изображение
MPAA: Изображение - Детям до 13 лет просмотр не желателен
Качество: DVD5 (сжатый)
Формат: DVD Video
Видеокодек: MPEG-2
Видео: 720x576 PAL (16:9), ~ 5600 kbps VBR
Аудио: AC3, 5.1, 448 kbps CBR - Русский
MediaInfo
Полное имя : Q:\Области.Тьмы-Limitless.(2011).DVD5\VIDEO_TS\VTS_02_2.VOB
Формат : MPEG-PS
Размер файла : 1024 Мбайт
Продолжительность : 23 м.
Общий поток : 6207 Кбит/сек

Видео
Идентификатор : 224 (0xE0)
Формат : MPEG Video
Версия формата : Version 2
Профиль формата : Main@Main
Параметр BVOP формата : Да
Параметр матрицы формата : По умолчанию
Параметры GOP формата : M=3, N=15
Продолжительность : 23 м.
Вид битрейта : Переменный
Битрейт : 5636 Кбит/сек
Номинальный битрейт : 8000 Кбит/сек
Ширина : 720 пикс.
Высота : 576 пикс.
Соотношение сторон : 16:9
Частота кадров : 25,000 кадр/сек
Стандарт вещания : PAL
Цветовое пространство : YUV
Подвыборка цветности : 4:2:0
Битовая глубина : 8 бит
Тип развёртки : Прогрессивная
Метод сжатия : С потерями
Бит/(Пиксели*Кадры) : 0.544
Размер потока : 930 Мбайт (91%)

Аудио
Идентификатор : 189 (0xBD)-128 (0x80)
Формат : AC-3
Формат/Информация : Audio Coding 3
Расширение режима : CM (complete main)
Режим смешивания : DVD-Video
Продолжительность : 23 м.
Вид битрейта : Постоянный
Битрейт : 448 Кбит/сек
Канал(ы) : 6 канала(ов)
Расположение каналов : Front: L C R, Side: L R, LFE
Частота : 48,0 КГц
Битовая глубина : 16 бит
Метод сжатия : С потерями
Задержка видео : -320 мс.
Размер потока : 73,9 Мбайт (7%)

Меню
Свернуть
DVDInfo
Title: Области.Тьмы-Limitless.(2011).DVD5
Size: 4.37 Gb ( 4 577 596,00 KBytes ) - DVD-5
Enabled regions: 1, 2, 3, 4, 5, 6, 7, 8

VTS_01 :
Play Length: 00:00:00
Video: PAL 4:3 (720x576) VBR

VTS_02 :
Play Length: 01:40:26
Video: PAL 16:9 (720x576) VBR, Auto Letterboxed
Audio:
Russian (Dolby AC3, 6 ch)
Свернуть
Изотовление релиза…
Исходник взят тут: Области тьмы / Limitless (2011) DVD9 (Спасибо большое amigo1992). Удалены: предупреждения, заставки, дополнительные материалы и Русская (DTS) звуковая дорожка, видеодорожка сжата на 20%. Обработка и сжатие проводились: DVD ReMake Pro + DVD Rebuilder + CCE SP2 1.00.01.09 [3 прохода] + Работа с меню (Adobe PhotoShop и MuxMan)
Свернуть

Знаете ли Вы, что...
  • В основе фильма лежит одноимённый роман Алана Глинна.
Свернуть
Скриншоты
Изображение
Изображение
Изображение
Изображение
Свернуть
Не в сети
Профиль  
Начать новую темуОтветить на тему  [ 1 сообщение ] 
Вы не можете начинать темы
Вы не можете отвечать на сообщения
Вы не можете редактировать свои сообщения
Вы не можете удалять свои сообщения