Правила форума

  • В этом разделе создание новых тем Запрещено.
  • Для создания новых тем пользуйтесь Корневым разделом DVD и HD фильмы.
Начать новую темуОтветить на тему  [ Сообщений: 4 ] 
Торрент файл
Размер: 4.24 GB • Зарегистрирован: 3 года 3 месяца • Статус: Проверено
Скачан: 108 раз • Желающих скачать: 0 • Поблагодарили: 42 раза
 Раздают: 0  |  0 KB/s  ]   Качают: 0  |  0 KB/s  ] 
 Полного источника не было 4 месяца 2 дня 
Сообщения
 Добавлено: 2013-09-07 14:07
DVD Release Group
Аватара пользователя
Стаж: 7 лет 1 месяц
Сообщений: 3570
Спасибок: 247810
Лайков: 1020
Одним меньше

Dead Man Down


Изображение


Год выпуска: 2013
Страна: США
Жанр: Боевик, триллер, драма, криминал
Продолжительность: 01:52:38
Перевод: Профессиональный (полное дублирование)
Cубтитры: Нет
Режиссер: Нильс Арден Оплев
В ролях: Колин Фаррелл, Нуми Рапас, Терренс Ховард, Доминик Купер, Изабель Юппер, Луис Да Силва мл., Стью Беннетт, Фрэнки Джи, Деклан Мулвей, Джон Ченатьемпо
Описание: История человека по имени Виктор, он правая рука лидера преступной группировки из Нью-Йорка. Виктор неспроста оказался в криминальном синдикате: мафия уничтожила его семью, поэтому он хочет отомстить. Об этом узнает загадочная Беатрис, соблазняет его и шантажирует. Однако у героев только одна цель в жизни — месть. И она приведет их к кровавой развязке.
Изображение
Дополнительно: Нет
Качество: DVD5
Формат: DVD Video
Видео кодек: MPEG2
Аудио кодек: AC3
Видео: 720х576 25fps 5000Kbps
Аудио: 48kHz 6ch 256kbps
"MediaInfo"
Формат : MPEG-PS
Размер файла : 1024 Мбайт
Продолжительность : 29 м.
Режим общего битрейта : Переменный
Общий поток : 4906 Кбит/сек

Видео
Идентификатор : 224 (0xE0)
Формат : MPEG Video
Версия формата : Version 2
Профиль формата : Main@Main
Параметр BVOP формата : Да
Параметр матрицы формата : Выборочная
Параметр GOP формата : M=3, N=12
Продолжительность : 29 м.
Вид битрейта : Переменный
Битрейт : 4552 Кбит/сек
Максимальный битрейт : 9000 Кбит/сек
Ширина : 720 пикселей
Высота : 576 пикселей
Соотношение сторон : 16:9
Частота кадров : 25,000 кадров/сек
Стандарт вещания : PAL
Цветовое пространство : YUV
Субдискретизация насыщенности : 4:2:0
Битовая глубина : 8 бит
Тип развёртки : Чересстрочная
Порядок развёртки : Верхнее поле первое
Метод сжатия : С потерями
Бит/(Пиксели*Кадры) : 0.439
Размер потока : 950 Мбайт (93%)
Основные цвета : BT.470-2 System B, BT.470-2 System G
Характеристики трансфера : BT.470-2 System B, BT.470-2 System G
Коэффициенты матрицы : SMPTE 170M

Аудио
Идентификатор : 189 (0xBD)-128 (0x80)
Формат : AC-3
Формат/Информация : Audio Coding 3
Расширение режима : CM (complete main)
Режим смешивания : DVD-Video
Продолжительность : 29 м.
Вид битрейта : Постоянный
Битрейт : 256 Кбит/сек
Каналы : 6 каналов
Расположение каналов : Front: L C R, Side: L R, LFE
Частота : 48,0 КГц
Битовая глубина : 16 бит
Метод сжатия : С потерями
Размер потока : 53,4 Мбайт (5%)

Меню
Свернуть

"Скриншоты"
Изображение
Изображение
Изображение
Изображение
Изображение
Изображение
Свернуть

Раздача группы:
Изображение
Не в сети
Профиль  
 Добавлено: 2013-09-11 20:51 (спустя 4 дня)
Кинокомментатор
Аватара пользователя
Стаж: 9 лет 1 месяц
Сообщений: 1332
Лайков: 54
подскажите плеер получше) пожаааалуйста!
и было круто всё таки сабы запихивать... а то всё желание потеряно... и хочется поднасрать релизу...


и вот... я уже ненавижу этот релиз))) и не буду смотреть кино! блааааго есть другое) а я то думал научились делать версии... включил и смотришь без гемора%)
Не в сети
Профиль  
 Добавлено: 2013-09-11 21:24 (спустя 32 минуты)
DVD Release Group
Аватара пользователя
Стаж: 7 лет 1 месяц
Сообщений: 3570
Спасибок: 247810
Лайков: 1020
Bronks
Вы хоть сами поняли что написали?
Не в сети
Профиль  
 Добавлено: 2013-09-11 21:29 (спустя 4 минуты)
Аватара пользователя
Стаж: 5 лет 4 месяца
Возраст: 26
Сообщений: 1658
Спасибок: 45811
Лайков: 69
Bronks
:ps_ih: :)-(:
Вы хоть сами поняли что написали?????? :)
_________________
S.T.A.L.K.E.R.: Lost Alpha
Не в сети
Профиль  
Начать новую темуОтветить на тему  [ Сообщений: 4 ] 
Вы не можете начинать темы
Вы не можете отвечать на сообщения
Вы не можете редактировать свои сообщения
Вы не можете удалять свои сообщения