Правила форума

  • В этом разделе создание новых тем Запрещено.
  • Для создания новых тем пользуйтесь Корневым разделом DVD и HD фильмы.
Начать новую темуОтветить на тему  [ 1 сообщение ] 
Торрент файл
Размер: 4.34 GB • Зарегистрирован: 4 года 2 месяца • Статус: Проверено
Скачан: 73 раза • Желающих скачать: 0 • Поблагодарили: 17 раз
 Раздают: 0  |  0 KB/s  ]   Качают: 0  |  0 KB/s  ] 
 Полного источника не было 3 года 2 месяца 
Сообщения
 Добавлено: 2012-09-30 07:53
DVD Release Group
Аватара пользователя
Стаж: 7 лет 1 месяц
Сообщений: 3550
Спасибок: 247107
Лайков: 1018
Ограбление по-бельгийски

Il etait une fois, une fois


Изображение


Год выпуска: 2012
Страна: Франция / Canal+, TF1 Droits Audiovisuels, TF1 Films Production, Scope Pictures
Жанр: Комедия
Продолжительность: 01:31:23
Перевод: Профессиональный (многоголосый, закадровый)
Cубтитры: Русские
Режиссер: Кристиан Маррет-Пальмар
В ролях: Франсуа-Ксавье Демезон, Энн Маривин, Жан-Люк Кучар, Чарли Дюпон, Абделхафид Металси, Дидье Фламан, Ксавьер Лемэтр, Стефан Войтович, Джонатан Коэн
Описание: Сексуальная блондинка Сесиль — девушка с богатым криминальным прошлым, находится в поисках нового «дела». Очередная жертва не заставляет себя долго ждать — мошенница положила глаз на наследного бельгийского принца Вилли, который проживает в шикарном пятизвездочном отеле в Париже. Но авантюристка сама становится жертвой обмана, зато теперь все козыри в ее руках, и с помощью шантажа Сесиль добьется своего!
IMDb: 4.8 (122)
Дополнительно:
Исходник: DVD9 (5,07 Гб) [лицензия, PAL 16:9].
Убрано: создатели и исполнители, смотрите на DVD, фотогалерея, заставки и предупреждение.
Сжатие фильма 5% сжатия (без учета ручного перераспределения битрейта, за счет большего сжатия конечных титров).
Работоспособность проверена на софтовом плеере Windows Media и бытовом LG.
Качество: DVD5 (сжатый)
Формат: DVD Video
Видео кодек: MPEG2
Аудио кодек: AC3
Видео: 720х576 25fps 5716Kbps
Аудио:
Аудио Rus: 48kHz 6ch 448Kbps
Аудио Fre: 48kHz 6ch 448Kbps
"MediaInfo"
Формат : MPEG-PS
Размер файла : 1024 Мбайт
Продолжительность : 21 м.
Режим общего битрейта : Переменный
Общий поток : 6747 Кбит/сек

Видео
Идентификатор : 224 (0xE0)
Формат : MPEG Video
Версия формата : Version 2
Профиль формата : Main@Main
Параметр BVOP формата : Да
Параметр матрицы формата : Выборочная
Продолжительность : 21 м.
Вид битрейта : Переменный
Битрейт : 5716 Кбит/сек
Максимальный битрейт : 8449 Кбит/сек
Ширина : 720 пикселей
Высота : 576 пикселей
Соотношение сторон : 4:3
Частота кадров : 25,000 кадров/сек
Стандарт вещания : PAL
Цветовое пространство : YUV
Субдискретизация насыщенности : 4:2:0
Битовая глубина : 8 бит
Тип развёртки : Чересстрочная
Порядок развёртки : Верхнее поле первое
Метод сжатия : С потерями
Бит/(Пиксели*Кадры) : 0.551
Размер потока : 868 Мбайт (85%)

Аудио #1
Идентификатор : 189 (0xBD)-128 (0x80)
Формат : AC-3
Формат/Информация : Audio Coding 3
Расширение режима : CM (complete main)
Режим смешивания : DVD-Video
Продолжительность : 21 м.
Вид битрейта : Постоянный
Битрейт : 448 Кбит/сек
Каналы : 6 каналов
Расположение каналов : Front: L C R, Side: L R, LFE
Частота : 48,0 КГц
Битовая глубина : 16 бит
Метод сжатия : С потерями
Размер потока : 68,0 Мбайт (7%)

Аудио #2
Идентификатор : 189 (0xBD)-129 (0x81)
Формат : AC-3
Формат/Информация : Audio Coding 3
Расширение режима : CM (complete main)
Режим смешивания : DVD-Video
Продолжительность : 21 м.
Вид битрейта : Постоянный
Битрейт : 448 Кбит/сек
Каналы : 6 каналов
Расположение каналов : Front: L C R, Side: L R, LFE
Частота : 48,0 КГц
Битовая глубина : 16 бит
Метод сжатия : С потерями
Размер потока : 68,0 Мбайт (7%)

Текст
Идентификатор : 189 (0xBD)-32 (0x20)
Формат : RLE
Формат/Информация : Run-length encoding
Режим смешивания : DVD-Video

Меню
Свернуть

"Скриншоты"
Изображение
Изображение
Изображение
Изображение
Изображение
Изображение
Изображение
Изображение
Свернуть

Раздача группы:
Изображение
В сети
Профиль  
Начать новую темуОтветить на тему  [ 1 сообщение ] 
Вы не можете начинать темы
Вы не можете отвечать на сообщения
Вы не можете редактировать свои сообщения
Вы не можете удалять свои сообщения