Правила форума

  • В этом разделе создание новых тем Запрещено.
  • Для создания новых тем пользуйтесь Корневым разделом DVD и HD фильмы.
Начать новую темуОтветить на тему  [ 1 сообщение ] 
Торрент файл
Размер: 4.37 GB • Зарегистрирован: 3 года 7 месяцев • Статус: Проверено
Скачан: 78 раз • Желающих скачать: 0 • Поблагодарили: 29 раз
 Раздают: 0  |  0 KB/s  ]   Качают: 0  |  0 KB/s  ] 
 Полного источника не было 1 год 4 месяца 
Сообщения
 Добавлено: 2013-04-26 04:21
DVD Release Group
Аватара пользователя
Стаж: 7 лет 1 месяц
Сообщений: 3544
Спасибок: 246920
Лайков: 1018
Охотники на гангстеров

Gangster Squad

«Ни имён. Ни закона. Ни жалости.»


Изображение


Год выпуска: 2013
Страна: США
Жанр: Боевик, триллер, драма, криминал
Продолжительность: 01:52:55
Перевод: Профессиональный (полное дублирование)
Субтитры: Русские, английские, украинские, литовские, латышские, эстонские, хорватские, словацкие, сербские, турецкие, польские, болгарские
Режиссер: Рубен Флейшер
В ролях: Джош Бролин, Райан Гослинг, Ник Нолти, Эмма Стоун, Энтони Маки, Джованни Рибизи, Майкл Пенья, Роберт Патрик, Шон Пенн, Холт МакКэллани
Описание: Лос-Анджелес, 1949 год. Уроженец Бруклина, жестокий главарь банды Микки Коэн держит город в ежовых рукавицах, собирая «грязные» деньги от торговли наркотиками, оружием и проституции, и - если все пойдет, как надо, - к Западу от Чикаго мышь не пискнет без его ведома. Защищают его не только его же головорезы, но и находящиеся у него «на крючке» полиция и политики. Этого хватит, чтобы запугать даже самых смелых, закаленных улицей копов... кроме, пожалуй, небольшой тайной группы сотрудников полицейского департамента Лос-Анджелеса во главе с сержантом Джоном О’Мара и Джерри Вутерсом, которые объединились, чтобы попытаться уничтожить преступный мир Коэна.
Изображение
Дополнительно:
Исходник: DVD9 (6.15Гб) [лицензия, PAL 16:9].
Убрано: все языки, кроме русского, допы, заставки и предупреждение.
Сжатие фильма 12.9% сжатия (без учета ручного перераспределения битрейта, за счет большего сжатия конечных титров).
Работоспособность проверена на софтовом плеере Windows Media и бытовом LG.
Sample:
http://sendfile.su/801377
Качество: DVD5 (сжатый)
Формат: DVD Video
Видео кодек: MPEG2
Аудио кодек: AC3
Видео: 720х576 25fps 5452Kbps
Аудио: 48kHz 6ch 384Kbps
"DVDInfo"
Title: Охотники на гангстеров DVD5
Size: 4.37 Gb ( 4 586 116,00 KBytes ) - DVD-5
Enabled regions: 1, 2, 3, 4, 5, 6, 7, 8

VTS_01 :
Play Length: 01:48:17
Video: PAL 16:9 (720x576) VBR, Auto Letterboxed
Audio:
Russian (Dolby AC3, 6 ch)
Subtitles:
English
Bulgarian
Hrvatski
Estonian
Latvian
Lithuanian
Polish
Russian
Serbian
Slovenian
Turkish
Ukrainian
Russian
Turkish

* Menus Information *

VIDEO_TS Menu
Video:
NTSC 4:3 (720x480) VBR
Auto Pan&Scan, Auto Letterboxed
Language Unit :


VTS_01 Menu
Video:
PAL 16:9 (720x576) VBR
Auto Pan&Scan
Audio:
Not specified (Dolby AC3, 2 ch)
English Language Unit :
Root Menu
Свернуть

"MediaInfo"
Формат : MPEG-PS
Размер файла : 1024 Мбайт
Продолжительность : 24 м.
Режим общего битрейта : Переменный
Общий поток : 5955 Кбит/сек

Видео
Идентификатор : 224 (0xE0)
Формат : MPEG Video
Версия формата : Version 2
Профиль формата : Main@Main
Параметр BVOP формата : Да
Параметр матрицы формата : Выборочная
Продолжительность : 24 м.
Вид битрейта : Переменный
Битрейт : 5452 Кбит/сек
Максимальный битрейт : 8189 Кбит/сек
Ширина : 720 пикселей
Высота : 576 пикселей
Соотношение сторон : 16:9
Частота кадров : 25,000 кадров/сек
Стандарт вещания : PAL
Цветовое пространство : YUV
Субдискретизация насыщенности : 4:2:0
Битовая глубина : 8 бит
Тип развёртки : Чересстрочная
Порядок развёртки : Верхнее поле первое
Метод сжатия : С потерями
Бит/(Пиксели*Кадры) : 0.526
Размер потока : 938 Мбайт (92%)

Аудио
Идентификатор : 189 (0xBD)-130 (0x82)
Формат : AC-3
Формат/Информация : Audio Coding 3
Расширение режима : CM (complete main)
Режим смешивания : DVD-Video
Продолжительность : 24 м.
Вид битрейта : Постоянный
Битрейт : 384 Кбит/сек
Каналы : 6 каналов
Расположение каналов : Front: L C R, Side: L R, LFE
Частота : 48,0 КГц
Битовая глубина : 16 бит
Метод сжатия : С потерями
Размер потока : 66,0 Мбайт (6%)

Текст #1
Идентификатор : 189 (0xBD)-32 (0x20)
Формат : RLE
Формат/Информация : Run-length encoding
Режим смешивания : DVD-Video

Текст #2
Идентификатор : 189 (0xBD)-33 (0x21)
Формат : RLE
Формат/Информация : Run-length encoding
Режим смешивания : DVD-Video

Текст #3
Идентификатор : 189 (0xBD)-35 (0x23)
Формат : RLE
Формат/Информация : Run-length encoding
Режим смешивания : DVD-Video

Текст #4
Идентификатор : 189 (0xBD)-36 (0x24)
Формат : RLE
Формат/Информация : Run-length encoding
Режим смешивания : DVD-Video

Текст #5
Идентификатор : 189 (0xBD)-37 (0x25)
Формат : RLE
Формат/Информация : Run-length encoding
Режим смешивания : DVD-Video

Текст #6
Идентификатор : 189 (0xBD)-38 (0x26)
Формат : RLE
Формат/Информация : Run-length encoding
Режим смешивания : DVD-Video

Текст #7
Идентификатор : 189 (0xBD)-39 (0x27)
Формат : RLE
Формат/Информация : Run-length encoding
Режим смешивания : DVD-Video

Текст #8
Идентификатор : 189 (0xBD)-40 (0x28)
Формат : RLE
Формат/Информация : Run-length encoding
Режим смешивания : DVD-Video

Текст #9
Идентификатор : 189 (0xBD)-42 (0x2A)
Формат : RLE
Формат/Информация : Run-length encoding
Режим смешивания : DVD-Video

Текст #10
Идентификатор : 189 (0xBD)-43 (0x2B)
Формат : RLE
Формат/Информация : Run-length encoding
Режим смешивания : DVD-Video

Меню
Свернуть

"Скриншоты"
Изображение
Изображение
Изображение
Изображение
Изображение
Изображение
Изображение
Свернуть

Раздача группы:
Изображение
Не в сети
Профиль  
Начать новую темуОтветить на тему  [ 1 сообщение ] 
Вы не можете начинать темы
Вы не можете отвечать на сообщения
Вы не можете редактировать свои сообщения
Вы не можете удалять свои сообщения