Правила форума

  • В этом разделе создание новых тем Запрещено.
  • Для создания новых тем пользуйтесь Корневым разделом DVD и HD фильмы.
Начать новую темуОтветить на тему  [ Сообщений: 6 ] 
Торрент файл
Размер: 4.34 GB • Зарегистрирован: 3 года 6 месяцев • Статус: Проверено
Скачан: 263 раза • Желающих скачать: 0 • Поблагодарили: 84 раза
 Раздают: 0  |  0 KB/s  ]   Качают: 0  |  0 KB/s  ] 
 Полного источника не было 1 день 6 часов 
Сообщения
 Добавлено: 2013-05-19 09:24
DVD Release Group
Аватара пользователя
Стаж: 7 лет 9 месяцев
Сообщений: 364
Спасибок: 3089
Лайков: 10
Охотники на ведьм / Hansel & Gretel: Witch Hunters

Изображение


Год выпуска: 2013
Страна: США, Германия
Слоган: «Новый поворот старой истории»
Жанр: ужасы, фэнтези, боевик
Продолжительность: 01:27:51
Версия фильма: Theatrical / Театральная версия
Перевод: Профессиональный (дубляж) - лицензия + Оригинальная звуковая дорожка
Дублеры: Илья Исаев, Ирина Киреева, Ольга Плетнёва, Николай Быстров, Андрей Данилюк
Субтитры: Русские, Английские

Режиссёр: Томми Виркола
Сценарист: Томми Виркола
Продюсер: Уилл Феррелл, Бо Флинн, Крис Хенчи
Оператор: Майкл Бонвилейн
Композитор: Этли Орварссон
В ролях: Джемма Артертон, Джереми Реннер, Фамке Янссен, Питер Стормаре, Зои Белл, Томас Манн, Ингрид Болсай Бердал, Дерек Мирс, Пихла Виитала, Моник Гандертон, Иоанна Кулиг, Стиг Фроде Хенриксен
Описание: Едва не погибнув в лапах ужасной ведьмы, Гензель и Гретель стали только сильнее. Одержимые местью, они ведут отчаянную борьбу со злом, даже не подозревая, что их поджидает нечто куда более опасное… собственное прошлое…
Доп. информация: Исходник видео Blu-ray 3D (38.94 GB), от ansky с TNC. Дубляж 5.1 – лицензия с Blu-Ray R5, взят из BDRip 720p R5 у Джокер. Звук перекодирован из AC-3 640 kbps в AC-3 448 kbps - EAC3toGUI.
Рейтинг MPAA: Рейтинг R (Подростки до 17 лет допускаются на фильм только в сопровождении одного из родителей)
Мировая премьера: 19 января 2013
Премьера в России: 17 января 2013, «Централ Партнершип»
Бюджет: $50 000 000
Кассовые сборы: $55 703 475

Изображение 6.754 (16 687)
Изображение 6.40 (26 437)

Качество: Blu-ray > DVD5 (Custom)
Формат: DVD Video
Видео кодек: MPEG2
Аудио кодек: AC3 (Dolby Digital)
Видео: NTSC 16:9 720x480 (525/60) VBR, Auto Letterboxed, 6.934 Mbps, 29.976 кадр/с
Аудио 1: Russian, AC3, 3/2 (L,C,R,SL,SR)+LFE ch, 448 kbps - Профессиональный (дубляж);
Аудио 2: English, AC3, 3/2 (L,C,R,SL,SR)+LFE ch, 448 kbps - Оригинальная звуковая дорожка
Субтитры: Русские, Английские

Изображение

Релиз группы: Изображение

Меню частично анимированное (анимация эпизодов), озвученное OST:
Скриншоты меню
Изображение
Изображение
Изображение
Свернуть

Скриншоты фильм
Изображение
Изображение
Изображение
Изображение
Изображение
Изображение
Изображение
Изображение
Изображение
Изображение
Изображение
Изображение
Свернуть

DVD инф.
Title: Witch Hunters Blu-ray DVD 5
Size: 4.34 Gb ( 4 552 802,00 KBytes ) - DVD-5
Enabled regions: 1, 2, 3, 4, 5, 6, 7, 8

VTS_01 :
Play Length: 01:27:51
Video: NTSC 16:9 (720x480) VBR, Auto Letterboxed
Audio:
Russian, AC3, 3/2 (L,C,R,SL,SR)+LFE ch, 448 kbps, Delay 0 mSec
English, AC3, 3/2 (L,C,R,SL,SR)+LFE ch, 448 kbps, Delay 0 mSec

Subtitles:
Russian
English

* Menus Information *

VIDEO_TS Menu
Video:
NTSC 4:3 (720x480) VBR
English Language Unit :
Title Menu

VTS_01 Menu
Video:
NTSC 16:9 (720x480) VBR
Auto Letterboxed
Audio:
Not specified (Dolby AC3, 6 ch)
English Language Unit :
Root Menu
Свернуть

Изготовление DVD
1. Разборка Blu-ray - tsMuxerGUI;
2. Индексирование -DGIndexNV;
3. Кодирование видео -Rhozet Carbon Coder 3 (в 2 прохода);
4. Извлечение звука из BD Rip - MKVExtractGUI2;
5. Преобразование AC-3 640 kbps – AC-3 448 kbps - EAC3toGUI;
5. Изготовление меню - Adobe Photoshop CS3;
5. Сборка и авторинг - DVD-lab PRO 2.

Настройки Rhozet Carbon Coder:
Изображение
Изображение

Финальный проект DVD Lab:
Изображение
Свернуть

Инф. исходника
General
ID : 0
Complete name : K:\BDMV\STREAM\00800.m2ts
Format : BDAV
Format/Info : Blu-ray Video
File size : 27.1 GiB
Duration : 1h 27mn
Overall bit rate : 44.1 Mbps
Maximum Overall bit rate : 48.0 Mbps

Video
ID : 4113 (0x1011)
Menu ID : 1 (0x1)
Format : AVC
Format/Info : Advanced Video Codec
Format profile : High@L4.1
Format settings, CABAC : Yes
Format settings, ReFrames : 3 frames
Format settings, GOP : M=1, N=24
Codec ID : 27
Duration : 1h 27mn
Bit rate mode : Variable
Maximum bit rate : 32.0 Mbps
Width : 1 920 pixels
Height : 1 080 pixels
Display aspect ratio : 16:9
Frame rate : 23.976 fps
Color space : YUV
Chroma subsampling : 4:2:0
Bit depth : 8 bits
Scan type : Progressive

Audio #1
ID : 4352 (0x1100)
Menu ID : 1 (0x1)
Format : AC-3
Format/Info : Audio Coding 3
Format profile : TrueHD / Core
Mode extension : CM (complete main)
Muxing mode : Stream extension
Codec ID : 131
Duration : 1h 27mn
Bit rate mode : Variable / Constant
Bit rate : 640 Kbps
Maximum bit rate : 4 860 Kbps
Channel(s) : 6 channels
Channel positions : Front: L C R, Side: L R, LFE
Sampling rate : 48.0 KHz
Bit depth : 16 bits
Stream size : 403 MiB (1%)

Audio #2
ID : 4353 (0x1101)
Menu ID : 1 (0x1)
Format : AC-3
Format/Info : Audio Coding 3
Mode extension : CM (complete main)
Codec ID : 129
Duration : 1h 27mn
Bit rate mode : Constant
Bit rate : 640 Kbps
Channel(s) : 6 channels
Channel positions : Front: L C R, Side: L R, LFE
Sampling rate : 48.0 KHz
Bit depth : 16 bits
Stream size : 403 MiB (1%)

Audio #3
ID : 4354 (0x1102)
Menu ID : 1 (0x1)
Format : DTS
Format/Info : Digital Theater Systems
Format profile : MA
Muxing mode : Stream extension
Codec ID : 134
Duration : 1h 27mn
Bit rate mode : Variable
Channel(s) : 6 channels
Channel positions : Front: L C R, Side: L R, LFE
Sampling rate : 48.0 KHz
Bit depth : 24 bits

Audio #4
ID : 4355 (0x1103)
Menu ID : 1 (0x1)
Format : AC-3
Format/Info : Audio Coding 3
Mode extension : CM (complete main)
Codec ID : 129
Duration : 1h 27mn
Bit rate mode : Constant
Bit rate : 640 Kbps
Channel(s) : 6 channels
Channel positions : Front: L C R, Side: L R, LFE
Sampling rate : 48.0 KHz
Bit depth : 16 bits
Stream size : 403 MiB (1%)

Audio #5
ID : 4356 (0x1104)
Menu ID : 1 (0x1)
Format : AC-3
Format/Info : Audio Coding 3
Mode extension : CM (complete main)
Codec ID : 129
Duration : 1h 27mn
Bit rate mode : Constant
Bit rate : 640 Kbps
Channel(s) : 6 channels
Channel positions : Front: L C R, Side: L R, LFE
Sampling rate : 48.0 KHz
Bit depth : 16 bits
Stream size : 403 MiB (1%)

Text #1
ID : 4608 (0x1200)
Menu ID : 1 (0x1)
Format : PGS
Codec ID : 144

Text #2
ID : 4609 (0x1201)
Menu ID : 1 (0x1)
Format : PGS
Codec ID : 144

Text #3
ID : 4610 (0x1202)
Menu ID : 1 (0x1)
Format : PGS
Codec ID : 144

Text #4
ID : 4611 (0x1203)
Menu ID : 1 (0x1)
Format : PGS
Codec ID : 144

Text #5
ID : 4612 (0x1204)
Menu ID : 1 (0x1)
Format : PGS
Codec ID : 144
Свернуть

Знаете ли Вы, что...
Первоначально на роль Гретель пробовались Дайан Крюгер, Ева Грин и Нуми Рапас.
В своем интервью на фестивале в Каннах в 2011 году Фамке Янссен заявила, что она согласилась на роль предводительницы ведьм, потому что ей нужно было выплачивать долги. Янссен неоднократно упоминала, начиная с 2007 года, что готовит фильм «Плохая мамочка» (2011), где она дебютировала как режиссер/сценарист. Финансирование и распространение фильма пережили нелегкие времена, отчасти из-за экономического кризиса 2008 года. К тому же она практически нигде не снималась в тот период.
Свернуть

Записано на DVD 5 программой ImgBurn, проверено на DVD проигрывателе.

Перезалит 08.06.2013г. Звук заменен на лицензию.
З.Ы.
Английскую дорожку с DVD тоже заменил, это окончательная редакция.


Последний раз редактировалось mihailo999 2013-06-08 10:01, всего редактировалось 4 раз(а).
Не в сети
Профиль  
 Добавлено: 2013-05-19 11:07 (спустя 1 час 42 минуты)
Пользователь забанен
Стаж: 3 года 8 месяцев
Сообщений: 13
а чем отличается от обычной версии?
Не в сети
Профиль  
 Добавлено: 2013-05-19 11:48 (спустя 41 минута)
DVD Release Group
Аватара пользователя
Стаж: 7 лет 9 месяцев
Сообщений: 364
Спасибок: 3089
Лайков: 10
Tapx
Прежде всего, продолжительностью.
Theatrical 01:27:56
Unrated 01:37:56
Это прокатная версия, которая шла в кинотеатрах. Здесь, в отличии от режиссерской или расширенной версии, нет некоторых эпизодов, которые по каким-то причинам посчитали не подходящими или излишними. И дублированная дорожка здесь без пропусков и вставок, в отличии от расширенной версии.

Эта дивидишка, в отличии от ранее собранной, сделана на основе видео, перекодированного из блюрика, она более качественная.
Не в сети
Профиль  
 Добавлено: 2013-06-07 21:50 (спустя 19 дней)
Аватара пользователя
Стаж: 6 лет 11 месяцев
Сообщений: 49
Спасибок: 184
звук хороший
Не в сети
Профиль  
 Добавлено: 2013-06-08 00:01 (спустя 2 часа 11 минут)
DVD Release Group
Аватара пользователя
Стаж: 7 лет 9 месяцев
Сообщений: 364
Спасибок: 3089
Лайков: 10
Перезалит 08.06.2013г. Звук заменен на лицензию.
Не в сети
Профиль  
 Добавлено: 2013-06-08 08:17 (спустя 8 часов)
DVD Release Group
Аватара пользователя
Стаж: 7 лет 9 месяцев
Сообщений: 364
Спасибок: 3089
Лайков: 10
Выложил:
Охотники на ведьм / Hansel & Gretel: Witch Hunters DVD 9 R5 :ti_pa:
dvd-i-hd-filmi-f1743/ohotniki-na-vedm-hansel-gretel-witch-hunters-tommi-virkola-t510435.html#p5777787
Не в сети
Профиль  
Начать новую темуОтветить на тему  [ Сообщений: 6 ] 
Вы не можете начинать темы
Вы не можете отвечать на сообщения
Вы не можете редактировать свои сообщения
Вы не можете удалять свои сообщения