Правила форума

  • В этом разделе создание новых тем Запрещено.
  • Для создания новых тем пользуйтесь Корневым разделом DVD и HD фильмы.
Начать новую темуОтветить на тему  [ Сообщений: 6 ] 
Торрент файл
Размер: 4.36 GB • Зарегистрирован: 4 года 10 месяцев • Статус: Проверено
Скачан: 391 раз • Желающих скачать: 0 • Поблагодарили: 67 раз
 Раздают: 0  |  0 KB/s  ]   Качают: 0  |  0 KB/s  ] 
 Полного источника не было 1 месяц 16 дней 
Сообщения
 Добавлено: 2012-02-05 13:39
Руководитель релиз-группы
Аватара пользователя
Стаж: 7 лет 5 месяцев
Возраст: 31
Сообщений: 3406
Спасибок: 46729
Лайков: 5
Изображение

Охотники за головами
Hodejegerne


Год выпуска: 2011
Страна: Германия, Норвегия
Жанр: боевик, триллер, криминал
Продолжительность: 01:36:01
Перевод: Профессиональный (полное дублирование)
Режиссер: Мортен Тильдум
Сценарий: Ларс Гудместад, Ульф Рюберг, Ю Несбё
Продюсер: Марианн Грэй, Asle Vatn, Анни Форби Фернандез
Оператор: Джон Андреас Андерсен
В ролях: Николай Костер-Вальдау, Юлье Ольгорд, Аксель Хенни, Бор Ове, Йоахим Рафаелсен, Эйвинд Сэндер, Нильс Йорген Каалстад, Карре Хаген Сиднесс, Рейдар Серенсен
Бюджет: NOK 30 300 000
Описание: Роджер Браун - блестящий «охотник за головами», незаменимый специалист по подбору топ-менеджеров для крупнейших фирм. Он может найти нужного человека на любую должность и его рекомендация - залог получения работы. Чтобы удержать красавицу жену, открывшую на деньги мужа картинную галерею в модном районе, Роджер давно уже живет не по средствам, и, пользуясь своим служебным положением, крадет дорогие картины у претендентов на руководящие должности.
Однажды Роджер встречает голландца Класа Граафа: идеального кандидата для фирмы специализирующейся на навигационном оборудовании и - вот удача! - владельца картины Рубенса, считавшейся утерянной во время Второй Мировой войны. Кража и последующая продажа шедевра может помочь Роджеру навсегда решить все финансовые проблемы.
Но, внезапно, «охотник за головами» сам превращается в добычу.
Изображение
MPAA: Изображение
Релиз: Изображение Раздача группы: Изображение
Качество: DVD5 (сжатый)
Формат: DVD Video
Видео: MPEG2; PAL 16:9 (720x576)
Аудио: Dolby AC3, 6 ch, 448 Kbps Russian
Субтитры: нет
Дополнительная информация :
Исходник : DVD9 (6.02 Гб) [лицензия, PAL 16:9]
Убрано : реклама, заставки, предупреждения
Сжатие фильма : 27.6 % сжатия (без учета ручного перераспределения битрейта, за счет большего сжатия конечных титров)
использовались программы
    DVDRemakePro
    Photoshop
    MuxMan
    Rebuilder и CCE (Cinema Craft Encoder), 5 проходов
    Работоспособность проверена на софтовом плеере Windows Media и бытовом LG
Свернуть
DVDInfo
    Title: Ohotniki.za.golovami_2011_DVD5.[R.G.Daredevil]
    Size: 4.36 Gb ( 4 572 118,00 KBytes ) - DVD-5
    Enabled regions: 1, 2, 3, 4, 5, 6, 7, 8

    VTS_01 :
    Play Length: 01:36:01
    Video: PAL 16:9 (720x576) VBR, Auto Letterboxed
    Audio:
    Russian (Dolby AC3, 6 ch)

    VTS_02 :
    Play Length: 00:00:02
    Video: PAL 16:9 (720x576) VBR, Auto Letterboxed
    Audio:
    Russian (Dolby AC3, 2 ch)

    * Menus Information *

    VIDEO_TS Menu
    Video:
    PAL 4:3 (720x576) VBR
    English Language Unit :
    Title Menu

    VTS_01 Menu
    Video:
    PAL 16:9 (720x576) VBR
    Auto Letterboxed
    Audio:
    Not specified (Dolby AC3, 2 ch)
    English Language Unit :
    Root Menu

    VTS_02 Menu
    Video:
    NTSC 4:3 (720x480) VBR
    Auto Pan&Scan, Auto Letterboxed
    English Language Unit :
    Root Menu
Свернуть
mediainfo
    Формат : MPEG-PS
    Размер файла : 1024 Мбайт
    Продолжительность : 21 м.
    Режим общего битрейта : Переменный
    Общий поток : 6508 Кбит/сек
    Библиотека кодирования : encoded by TMPGEnc (ver. 2.524.63.181)

    Видео
    Идентификатор : 224 (0xE0)
    Формат : MPEG Video
    Версия формата : Version 2
    Профиль формата : Main@Main
    Параметр BVOP формата : Да
    Параметр матрицы формата : Выборочная
    Продолжительность : 21 м.
    Вид битрейта : Переменный
    Битрейт : 5930 Кбит/сек
    Ширина : 720 пикселей
    Высота : 576 пикселей
    Соотношение сторон : 16:9
    Частота кадров : 25,000 кадров/сек
    Стандарт вещания : PAL
    Цветовое пространство : YUV
    Субдискретизация насыщенности : 4:2:0
    Битовая глубина : 8 бит
    Тип развёртки : Прогрессивная
    Порядок развёртки : Нижнее поле первое
    Метод сжатия : С потерями
    Бит/(Пиксели*Кадры) : 0.572
    Размер потока : 933 Мбайт (91%)
    Библиотека кодирования : TMPGEnc 2.524.63.181

    Аудио
    Идентификатор : 189 (0xBD)-128 (0x80)
    Формат : AC-3
    Формат/Информация : Audio Coding 3
    Расширение режима : CM (complete main)
    Режим смешивания : DVD-Video
    Продолжительность : 21 м.
    Вид битрейта : Постоянный
    Битрейт : 448 Кбит/сек
    Каналы : 6 каналов
    Расположение каналов : Front: L C R, Side: L R, LFE
    Частота : 48,0 КГц
    Битовая глубина : 16 бит
    Метод сжатия : С потерями
    Задержка видео : 385 мс.
    Размер потока : 70,5 Мбайт (7%)

    Меню
Свернуть
Знаете ли Вы, что...
  • Фильм основан на книге Ю Несбе «Охотники за головами».
Свернуть
Скриншоты

меню
Изображение
Изображение
Свернуть
Изображение
Изображение
Изображение
Изображение
Изображение
Свернуть
Не в сети
Профиль  
 Добавлено: 2012-02-05 14:07 (спустя 27 минут)
Аватара пользователя
Стаж: 6 лет 10 месяцев
Возраст: 38
Сообщений: 152
фильм прикольный-смотрел 2 ух голосном исполнение!
Не в сети
Профиль  
 Добавлено: 2012-02-05 14:15 (спустя 8 минут)
Аватара пользователя
Стаж: 6 лет 10 месяцев
Возраст: 38
Сообщений: 152
askboy-вкл торент!
Не в сети
Профиль  
 Добавлено: 2012-02-06 18:36 (спустя 1 день 4 часа)
Стаж: 6 лет 1 месяц
Сообщений: 11
хорош фильмец!!! :ya_hoo_oo:
Не в сети
Профиль  
 Добавлено: 2012-02-08 18:00 (спустя 1 день 23 часа)
Аватара пользователя
Стаж: 6 лет 11 месяцев
Сообщений: 167
норм !!
Не в сети
Профиль  
 Добавлено: 2012-02-12 20:22 (спустя 4 дня)
Аватара пользователя
Стаж: 4 года 10 месяцев
Возраст: 30
Сообщений: 4
спасибо! стоющий фильм!
Не в сети
Профиль  
Начать новую темуОтветить на тему  [ Сообщений: 6 ] 
Вы не можете начинать темы
Вы не можете отвечать на сообщения
Вы не можете редактировать свои сообщения
Вы не можете удалять свои сообщения