Правила форума

  • В этом разделе создание новых тем Запрещено.
  • Для создания новых тем пользуйтесь Корневым разделом DVD и HD фильмы.
Начать новую темуОтветить на тему  [ Сообщений: 2 ] 
Торрент файл
Размер: 4.31 GB • Зарегистрирован: 4 года 9 месяцев • Статус: Проверено
Скачан: 41 раз • Желающих скачать: 0 • Поблагодарили: 7 раз
 Раздают: 0  |  0 KB/s  ]   Качают: 0  |  0 KB/s  ] 
 Полного источника не было 5 дней 
Сообщения
 Добавлено: 2012-02-29 19:46
Аватара пользователя
Стаж: 4 года 9 месяцев
Сообщений: 3
Спасибок: 26
Охранник для дочери / Sara

Изображение


Год выпуска: 1997
Страна: Польша
Жанр: Боевик, Мелодрама
Продолжительность: 01:47:24
Перевод: Профессиональный (многоголосый закадровый) + Оригинальная звуковая дорожка

Режиссёр: Мацей Шлесицки
В ролях: Богуслав Линда, Агнешка Влодарчик, Цезари Пазура, Марек Перепечко, Станислав Брудны, Славомир Сулей, Дорота Мацейевска, Джек Рекниц, Кжиштоф Кумор, Станислав Пенксик
Описание: Бывший спецназовец Леон очень крут в своем деле, когда не пьян. А пьян он в последнее время всегда. В таком виде он и предстал перед своим нанимателем — боссом местной мафии, который в данный момент сдерживает осаду конкурентов и ищет профессионального охранника для своей 16 — летней дочери Сары.
Несмотря ни на что Леон был нанят. Он действительно оказался лучшим, но тем не менее совершил самую страшную ошибку, которую только мог совершить…

"Польский кинематограф оказывается интересная вещь! Так например этот фильм вместил в себя и боевик, и комедию, и любовную мелодраму. Получился крепкий коктейль жанров с непредсказуемым финалом.Не буду пересказывать сюжет, чтобы не испортить впечатление. Хочу лишь упомянуть одну сцену: ближе к концу фильма в перестрелке разбили аквариум, обратите внимание как рыбки из последних сил плыли против течения, а вода все утекала… Очень трогательно и красиво снято! Даже символично, так главные герои подобно этим рыбкам плывут против течения.К тому же в фильме очень много отсылает зрителя к «Леону», одно имя телохранителя чего стоит. Замечательный юмор прекрасно разбавляет картину, шутки ничуть не пошлые, радует, что поляки не пытаются подстраиваться по американцев, а сохраняют свою самобытность. До сих пор под впечатлением от польского спецназа.

Итог. Замечательный фильм, местами откровенный. Досмотришь и уже хочется заново пересмотреть."


Качество: DVD5
Формат: DVD Video
Видео кодек: MPEG2
Аудио кодек: AC3 (Dolby Digital)
Видео: MPEG2 Video 720x576 (16:9) 25.00fps 3327kbps
Аудио #1: Dolby AC3 48000Hz 6ch 448kbps - русский [Профессиональный (многоголосый закадровый)]
Аудио #2: Dolby AC3 48000Hz 6ch 448kbps - польский [Оригинальная звуковая дорожка]
Скриншоты
Изображение
Изображение
Изображение
Изображение
Свернуть



DVDinfo
General

Format : MPEG-PS
File size : 1 024 MiB
Duration : 25mn 52s
Overall bit rate mode : Variable
Overall bit rate : 5 532 Kbps

Video
ID : 224 (0xE0)
Format : MPEG Video
Format version : Version 2
Format profile : Main@Main
Format settings, BVOP : Yes
Format settings, Matrix : Custom
Format settings, GOP : M=3, N=12
Duration : 25mn 52s
Bit rate mode : Variable
Bit rate : 4 078 Kbps
Width : 720 pixels
Height : 576 pixels
Display aspect ratio : 16:9
Frame rate : 25.000 fps
Standard : PAL
Color space : YUV
Chroma subsampling : 4:2:0
Bit depth : 8 bits
Scan type : Interlaced
Scan order : Top Field First
Compression mode : Lossy
Bits/(Pixel*Frame) : 0.393
Stream size : 755 MiB (74%)

Audio #1
ID : 189 (0xBD)-128 (0x80)
Format : AC-3
Format/Info : Audio Coding 3
Mode extension : CM (complete main)
Muxing mode : DVD-Video
Duration : 25mn 52s
Bit rate mode : Constant
Bit rate : 448 Kbps
Channel(s) : 6 channels
Channel positions : Front: L C R, Side: L R, LFE
Sampling rate : 48.0 KHz
Bit depth : 16 bits
Compression mode : Lossy
Delay relative to video : -632ms
Stream size : 82.9 MiB (8%)

Audio #2
ID : 189 (0xBD)-129 (0x81)
Format : AC-3
Format/Info : Audio Coding 3
Mode extension : CM (complete main)
Muxing mode : DVD-Video
Duration : 25mn 52s
Bit rate mode : Constant
Bit rate : 448 Kbps
Channel(s) : 6 channels
Channel positions : Front: L C R, Side: L R, LFE
Sampling rate : 48.0 KHz
Bit depth : 16 bits
Compression mode : Lossy
Delay relative to video : -632ms
Stream size : 82.9 MiB (8%)

Свернуть
Не в сети
Профиль  
 Добавлено: 2012-05-30 16:22 (спустя 3 месяца)
Аватара пользователя
Стаж: 8 лет 5 месяцев
Сообщений: 29
раздайте плииз
Не в сети
Профиль  
Начать новую темуОтветить на тему  [ Сообщений: 2 ] 
Вы не можете начинать темы
Вы не можете отвечать на сообщения
Вы не можете редактировать свои сообщения
Вы не можете удалять свои сообщения