Правила форума

  • В этом разделе создание новых тем Запрещено.
  • Для создания новых тем пользуйтесь Корневым разделом DVD и HD фильмы.
Начать новую темуОтветить на тему  [ Сообщений: 3 ] 
Торрент файл
Размер: 6.08 GB • Зарегистрирован: 4 года 6 месяцев • Статус: Проверено
Скачан: 37 раз • Желающих скачать: 0 • Поблагодарили: 11 раз
 Раздают: 0  |  0 KB/s  ]   Качают: 0  |  0 KB/s  ] 
 Полного источника не было 3 года 2 месяца 
Сообщения
 Добавлено: 2012-05-15 23:04
Аватара пользователя
Стаж: 5 лет 5 месяцев
Возраст: 30
Сообщений: 353
Спасибок: 7455
Оксана в стране чудес / Saxana a Lexikon kouzel

Изображение


Год выпуска: 2011
Страна: Чехия (Czech Television, Ivan Hronec, Pragofilm)
Слоган: «When Your mum is a Witch, be careful what You play with»
Жанр: мультфильм, комедия, семейный
Продолжительность: 01:33:42
Перевод: Профессиональный (многоголосый закадровый)
Субтитры: Русские

Режиссёр: Вацлав Ворличек / Vaclav Vorlicek
Сценарист: Вацлав Ворличек, David Bros, Властимил Мистрик
Продюсер: Зденек Седлачек, Кристиан Бекер, Ivan Hronec
Оператор: Петр Полак, Антонин Вайзер
Композитор: Radim Hladík Sr.
В ролях: Петра Черноцка, Ян Грушинский, Иржина Богдалова, Петр Нарожны, Иржи Лабус, Яромир Дулава, Маркета Хрубешова, Надя Конвалинкова

Описание: Давным-давно жила-была девочка Ксения, юная ученица школы магии, которая сбежала из Волшебной Страны в Мир Людей. Там она влюбилась в обычного юношу и осталась с ним, храня в тайне ото всех секрет своего прошлого. У счастливой пары родилась прекрасная дочка Оксана. Прошло много лет, девочка выросла и превратилась в крайне любопытную особу.
Однажды утром Оксана заглянула на чердак, где нашла и открыла старую Книгу заклинаний, а потом через магический портал попала в Волшебную Страну. Теперь девочке придётся исследовать невероятный мир, полный карликов, чертей, драконов, гоблинов, василисков, сделать все, чтобы не попасть под арест на 300 лет за проступок матери, сразиться с гангстерами и главное — спасти обитателей сказочного королевства от полного уничтожения! Наберитесь смелости погулять по сказочной стране вместе с маленькой Оксаной и помните, что удивительное, невероятное, волшебное всегда рядом с нами…

Доп.информация: Анонсы
Бюджет: $8 000 000

Изображение Изображение Изображение

Качество: DVD9 R5
Формат: DVD Video
Видео кодек: MPEG2
Аудио кодек: AC3 (Dolby Digital)
Видео: PAL 16:9 (720x576(0.731)) MPEG Video, 25,000 кадр/сек, 7583 Кбит/сек
Аудио #1: Russian (Dolby AC3, 2 ch) 224 Кбит/сек, 48,0 КГц [Профессиональный (многоголосый закадровый)]
Субтитры: Русские

"DVDInfo"
Title:
Size: 6.08 Gb ( 6 373 216 KBytes ) - DVD-9
Enabled regions: 1, 2, 3, 4, 5, 6, 7, 8

VTS_01 :
Play Length: 00:00:15
Video: PAL 4:3 (720x576) VBR
Audio:
Not specified (Dolby AC3, 2 ch)

VTS_02 :
Play Length: 00:00:08
Video: PAL 16:9 (720x576) VBR, Auto Letterboxed
Audio:
Not specified (Dolby AC3, 2 ch)

VTS_03 :
Play Length: 00:01:19
Video: PAL 16:9 (720x576) VBR, Auto Letterboxed
Audio:
Not specified (Dolby AC3, 2 ch)

VTS_04 :
Play Length: 00:02:00
Video: PAL 16:9 (720x576) VBR, Auto Letterboxed
Audio:
Not specified (Dolby AC3, 2 ch)

VTS_05 :
Play Length: 00:02:31
Video: PAL 16:9 (720x576) VBR, Auto Letterboxed
Audio:
Not specified (Dolby AC3, 2 ch)

VTS_06 :
Play Length: 00:01:34
Video: PAL 16:9 (720x576) VBR, Auto Letterboxed
Audio:
Not specified (Dolby AC3, 2 ch)

VTS_07 :
Play Length: 00:02:19
Video: PAL 16:9 (720x576) VBR, Auto Letterboxed
Audio:
Not specified (Dolby AC3, 2 ch)

VTS_08 :
Play Length: 00:02:24
Video: PAL 16:9 (720x576) VBR, Auto Letterboxed
Audio:
Not specified (Dolby AC3, 2 ch)

VTS_09 :
Play Length: 00:01:51
Video: PAL 16:9 (720x576) VBR, Auto Letterboxed
Audio:
Not specified (Dolby AC3, 2 ch)

VTS_10 :
Play Length: 00:01:57
Video: PAL 16:9 (720x576) VBR, Auto Letterboxed
Audio:
Russian (Dolby AC3, 2 ch)
Subtitles:
Russian

VTS_11 :
Play Length: 00:01:31
Video: PAL 16:9 (720x576) VBR, Auto Letterboxed
Audio:
Not specified (Dolby AC3, 2 ch)

VTS_12 :
Play Length: 00:01:19
Video: PAL 16:9 (720x576) VBR, Auto Letterboxed
Audio:
Not specified (Dolby AC3, 2 ch)

VTS_13 :
Play Length: 00:02:33
Video: PAL 16:9 (720x576) VBR, Auto Letterboxed
Audio:
Not specified (Dolby AC3, 2 ch)

VTS_14 :
Play Length: 01:33:42
Video: PAL 16:9 (720x576) VBR, Auto Letterboxed
Audio:
Russian (Dolby AC3, 2 ch)
Subtitles:
Russian

VTS_15 :
Play Length: 00:00:15
Video: PAL 16:9 (720x576) VBR, Auto Letterboxed
Audio:
Not specified (Dolby AC3, 6 ch)
Not specified (Dolby AC3, 6 ch)
Subtitles:
Russian

Свернуть

"MediaInfo"
Общее
Полное имя : J:\Новинки 2012\Oksana.v.strane.chudes.2011.DVD9\VIDEO_TS\VTS_14_1.VOB
Формат : MPEG-PS
Размер файла : 1024 Мбайт
Продолжительность : 17 м.
Режим общего битрейта : Переменный
Общий поток : 7966 Кбит/сек
Библиотека кодирования : (c) 1998-2011 Womble Multimedia, Inc. / MPEG Video Wizard DVD 5.0.1.100 (03/2011) / Dec 19 2011

Видео
Идентификатор : 224 (0xE0)
Формат : MPEG Video
Версия формата : Version 2
Профиль формата : Main@Main
Параметр BVOP формата : Да
Параметр матрицы формата : Выборочная
Продолжительность : 17 м.
Вид битрейта : Переменный
Битрейт : 7583 Кбит/сек
Максимальный битрейт : 9000 Кбит/сек
Ширина : 720 пикселей
Высота : 576 пикселей
Соотношение сторон : 16:9
Частота кадров : 25,000 кадров/сек
Стандарт вещания : PAL
Цветовое пространство : YUV
Субдискретизация насыщенности : 4:2:0
Битовая глубина : 8 бит
Тип развёртки : Прогрессивная
Метод сжатия : С потерями
Бит/(Пиксели*Кадры) : 0.731
Размер потока : 975 Мбайт (95%)
Библиотека кодирования : (c) 1998-2011 Womble Multimedia, Inc. / MPEG Video Wizard DVD 5.0.1.100 (03/2011) / Dec 19 2011

Аудио
Идентификатор : 189 (0xBD)-128 (0x80)
Формат : AC-3
Формат/Информация : Audio Coding 3
Расширение режима : CM (complete main)
Параметр Endianness формата : Big
Режим смешивания : DVD-Video
Продолжительность : 17 м.
Вид битрейта : Постоянный
Битрейт : 224 Кбит/сек
Каналы : 2 канала
Расположение каналов : Front: L R
Частота : 48,0 КГц
Битовая глубина : 16 бит
Метод сжатия : С потерями
Размер потока : 28,8 Мбайт (3%)

Текст #1
Идентификатор : 189 (0xBD)-32 (0x20)
Формат : RLE
Формат/Информация : Run-length encoding
Режим смешивания : DVD-Video

Текст #2
Идентификатор : 189 (0xBD)-33 (0x21)
Формат : RLE
Формат/Информация : Run-length encoding
Режим смешивания : DVD-Video

Свернуть

Скриншоты
Скриншоты меню
Изображение
Изображение
Изображение
Изображение
Свернуть
Изображение
Изображение
Изображение
Изображение
Изображение
Изображение
Изображение
Изображение
Изображение
Изображение
Свернуть


Изображение
Не в сети
Профиль  
 Добавлено: 2012-05-15 23:55 (спустя 50 минут)
Аватара пользователя
Стаж: 5 лет 2 месяца
Возраст: 34
Сообщений: 1278
Лайков: 20
:ne_ne: Чехия ,не мой вкус.
Не в сети
Профиль  
 Добавлено: 2012-05-16 17:36 (спустя 17 часов)
Кинокомментатор
Аватара пользователя
Стаж: 9 лет 1 месяц
Сообщений: 1332
Лайков: 54
DIMDIMISH
да ты нацист как я посмотрю, не зная ничего сразу такие заявления:)
_________________
Я ВКонтакте
Не в сети
Профиль  
Начать новую темуОтветить на тему  [ Сообщений: 3 ] 
Вы не можете начинать темы
Вы не можете отвечать на сообщения
Вы не можете редактировать свои сообщения
Вы не можете удалять свои сообщения