Правила форума

  • В этом разделе создание новых тем Запрещено.
  • Для создания новых тем пользуйтесь Корневым разделом DVD и HD фильмы.
Начать новую темуОтветить на тему  [ Сообщений: 5 ] 
Торрент файл
Размер: 3.96 GB • Зарегистрирован: 4 года 11 месяцев • Статус: Проверено
Скачан: 180 раз • Желающих скачать: 0 • Поблагодарили: 30 раз
 Раздают: 0  |  0 KB/s  ]   Качают: 0  |  0 KB/s  ] 
 Полного источника не было 1 год 3 месяца 
Сообщения
 Добавлено: 2011-12-18 02:45
Аватара пользователя
Стаж: 4 года 11 месяцев
Сообщений: 24
Спасибок: 357
Орден Дракона / Dragon Crusaders

Изображение



Год выхода: 2011
Страна: США

Жанр: Боевик,фэнтези
Продолжительность: 01:26:52
Перевод: Профессиональный (многоголосый закадровый)

Режиссер: Марк Аткинс
Сценарий: Марк Аткинс
Продюсер: Дэвид Майкл Лэтт, Пол Бейлс, Хелен Притчард, ...
Композитор: Крис Риденауа

В ролях: Ниа Энн, Джейсон Бистон, Керис Элери, Сесиль Фэй, Кэти Френсис, Фет Гринвуд, Марк Ричард Хэйес, Кристиан Ховард, Уильям Хув, Дилан Джонс

Описание: Захватив пиратский корабль, отряд крестоносцев попадает под действие древнего проклятия! Теперь они обречены превратиться в страшных чудовищ. Но вскоре им удается узнать, что проклятие можно разрушить, уничтожив могучего древнего Дракона. Понимая, что это их единственный шанс, рыцари отправляются в страну драконов...

Изображение

Pаздача группы:Изображение

Качество: DVD5
Формат: MPEG Video
Видео: MPEG2 Video 720x576 (16:9) 25.00fps 8000kbps
Аудио 1:Dolby AC3 48000Hz 6ch 384kbps
Аудио 2:Dolby AC3 48000Hz 2ch 192kbps

MediaInfo
General
Complete name : E:\Download\Орден Дракона Dragon Crusaders\VIDEO_TS\VTS_02_1.VOB
Format : MPEG-PS
File size : 1 024 MiB
Duration : 21mn 8s
Overall bit rate mode : Variable
Overall bit rate : 6 771 Kbps

Video
ID : 224 (0xE0)
Format : MPEG Video
Format version : Version 2
Format profile : Main@Main
Format settings, BVOP : Yes
Format settings, Matrix : Custom
Format settings, GOP : M=3, N=12
Duration : 21mn 8s
Bit rate mode : Variable
Bit rate : 5 868 Kbps
Maximum bit rate : 8 000 Kbps
Width : 720 pixels
Height : 576 pixels
Display aspect ratio : 16:9
Frame rate : 25.000 fps
Standard : PAL
Color space : YUV
Chroma subsampling : 4:2:0
Bit depth : 8 bits
Scan type : Interlaced
Scan order : Top Field First
Compression mode : Lossy
Bits/(Pixel*Frame) : 0.566
Stream size : 887 MiB (87%)
Color primaries : BT.470-2 System B, BT.470-2 System G
Transfer characteristics : BT.470-2 System B, BT.470-2 System G
Matrix coefficients : SMPTE 170M

Audio #1
ID : 189 (0xBD)-128 (0x80)
Format : AC-3
Format/Info : Audio Coding 3
Mode extension : CM (complete main)
Muxing mode : DVD-Video
Duration : 21mn 8s
Bit rate mode : Constant
Bit rate : 384 Kbps
Channel(s) : 6 channels
Channel positions : Front: L C R, Side: L R, LFE
Sampling rate : 48.0 KHz
Bit depth : 16 bits
Compression mode : Lossy
Stream size : 58.1 MiB (6%)

Audio #2
ID : 189 (0xBD)-129 (0x81)
Format : AC-3
Format/Info : Audio Coding 3
Mode extension : CM (complete main)
Muxing mode : DVD-Video
Duration : 21mn 8s
Bit rate mode : Constant
Bit rate : 192 Kbps
Channel(s) : 2 channels
Channel positions : Front: L R
Sampling rate : 48.0 KHz
Bit depth : 16 bits
Compression mode : Lossy
Stream size : 29.0 MiB (3%)

Audio #3
ID : 189 (0xBD)-130 (0x82)
Format : AC-3
Format/Info : Audio Coding 3
Mode extension : CM (complete main)
Muxing mode : DVD-Video
Duration : 21mn 8s
Bit rate mode : Constant
Bit rate : 192 Kbps
Channel(s) : 2 channels
Channel positions : Front: L R
Sampling rate : 48.0 KHz
Bit depth : 16 bits
Compression mode : Lossy
Stream size : 29.0 MiB (3%)

Menu



Свернуть
Скриншоты
Изображение
Изображение
Изображение
Изображение
Изображение
Свернуть
Не в сети
Профиль  
 Добавлено: 2011-12-18 19:34 (спустя 16 часов)
Аватара пользователя
Стаж: 6 лет 5 месяцев
Сообщений: 13
тв3 голимый!!! :(
Не в сети
Профиль  
 Добавлено: 2012-02-25 22:34 (спустя 2 месяца 7 дней)
Аватара пользователя
Стаж: 8 лет 10 месяцев
Возраст: 28
Сообщений: 30
Согласен. Зачем вообще такое снимать. :( :ne_ne:
Не в сети
Профиль  
 Добавлено: 2012-02-27 13:06 (спустя 1 день 14 часов)
Аватара пользователя
Стаж: 8 лет 3 месяца
Возраст: 36
Сообщений: 121
а очем второй скрин?
Не в сети
Профиль  
 Добавлено: 2012-06-12 19:21 (спустя 3 месяца 14 дней)
Аватара пользователя
Стаж: 5 лет 2 месяца
Возраст: 34
Сообщений: 1280
Лайков: 20
люблю драконов, но здесь видимо их нэт :(
Не в сети
Профиль  
Начать новую темуОтветить на тему  [ Сообщений: 5 ] 
Вы не можете начинать темы
Вы не можете отвечать на сообщения
Вы не можете редактировать свои сообщения
Вы не можете удалять свои сообщения