Правила форума

  • В этом разделе создание новых тем Запрещено.
  • Для создания новых тем пользуйтесь Корневым разделом DVD и HD фильмы.
Начать новую темуОтветить на тему  [ Сообщений: 10 ] 
Торрент файл
Размер: 4.37 GB • Зарегистрирован: 5 лет 7 месяцев • Статус: Проверено
Скачан: 1151 раз • Желающих скачать: 0 • Поблагодарили: 198 раз
 Раздают: 0  |  0 KB/s  ]   Качают: 0  |  0 KB/s  ] 
 Полного источника не было 1 год 8 месяцев 
Сообщения
 Добавлено: 2011-04-13 15:37
Модератор
Аватара пользователя
Стаж: 8 лет 1 месяц
Возраст: 20
Сообщений: 32130
Спасибок: 98576
Лайков: 80
Орел Девятого легиона / The Eagle

Изображение
Год выпуска: 2011
Страна: Изображение США
Жанр: драма, история
Продолжительность: 01:49:24
Перевод: Профессиональный (полное дублирование) [лицензия]

В ролях: Ченнинг Татум (Marcus Aquila), Джейми Белл (Esca), Дональд Сазерленд (Uncle Aquila), Марк Стронг (Guern), Дэкин Мэтьюз (Claudius), Истван Гёз (Cohort Centurion), Дэнис О’Харе (Lutorius), Пол Риттер (Galba), Жолт Ласло (Paulus), Джулиан Льюис Джонс (Cassius), Аладар Лаклос (Flavius Aquila), Марселл Миклош (Fort Legionary #1)
Дублёры: Василий Дахненко (Marcus Aquila) (Marcus Aquila), Евгений Вальц (Esca) (Esca), Игорь Старосельцев (Uncle Aquila) (Uncle Aquila), Валерий Сторожик (Guern) (Guern), Алексей Борзунов (Claudius) (Claudius)
Описание: II век нашей эры. Молодой центурион Маркус Акила прибывает из Рима на Британские острова, и отправляется в горы Шотландии на поиски пропавшего 20 лет назад легендарного Девятого легиона, которым командовал его отец… Дикие племена и непредсказуемые опасности стоят на пути героя, но он во чтобы то ни стало должен найти след римских воинов и спасти главный символ легиона - Орла Девяти.

Раздача: Изображение

Изображение
Изображение
Доп. информация
Бюджет: $25 000 000
Сборы в мире: $32 708 156
Сборы в США: $19 490 041
Сборы в России: $4 065 840
Мировая премьера: 9 февраля 2011
Изображение Релиз на DVD: 21 апреля 2011, «Парадиз Видео»
Изображение Релиз на Blu-ray: 5 мая 2011, «Парадиз Видео»
DVDInfo…
Title: Орел.Девятого.Легиона-The.Eagle.(2011).DVD5
Size: 4.37 Gb ( 4 577 758,00 KBytes ) - DVD-5
Enabled regions: 1, 2, 3, 4, 5, 6, 7, 8

VTS_01 :
Play Length: 00:00:00+01:49:24+{00:00:00}
Video: PAL 16:9 (720x576) VBR, Auto Letterboxed
Audio:
Russian, AC3, 3/2 (L,C,R,SL,SR)+LFE ch, 384 kbps, Delay -49 mSec

Subtitles:
Russian

VTS_02 :
Play Length: 00:00:00+{00:00:01}+{00:00:00}
Video: PAL 16:9 (720x576) VBR, Auto Letterboxed

VTS_03 :
Play Length: 00:00:00+{00:00:00}+{00:00:00}
Video: PAL 4:3 (720x576) VBR

VTS_04 :
Play Length: 00:00:00+{00:00:02}+{00:00:00}
Video: PAL 4:3 (720x576) VBR

VTS_05 :
Play Length: 00:00:00+{00:00:01}+{00:00:00}
Video: PAL 16:9 (720x576) VBR, Auto Letterboxed
Свернуть
MediaInfo…
Общее
Полное имя : R:\Орел.Девятого.Легиона-The.Eagle.(2011).DVD5\VIDEO_TS\VTS_01_2.VOB
Формат : MPEG-PS
Размер файла : 1024 Мбайт
Продолжительность : 25 м.
Общий поток : 5635 Кбит/сек

Видео
Идентификатор : 224 (0xE0)
Формат : MPEG Video
Версия формата : Version 2
Профиль формата : Main@Main
Параметр BVOP формата : Да
Параметр матрицы формата : По умолчанию
Параметры GOP формата : M=3, N=15
Продолжительность : 25 м.
Вид битрейта : Постоянный
Битрейт : 5139 Кбит/сек
Номинальный битрейт : 8000 Кбит/сек
Ширина : 720 пикс.
Высота : 576 пикс.
Соотношение сторон : 16:9
Частота кадров : 25,000 кадр/сек
Стандарт вещания : PAL
Цветовое пространство : YUV
Подвыборка цветности : 4:2:0
Битовая глубина : 8 бит
Тип развёртки : Чересстрочная
Порядок развёртки : Верхнее поле первое
Метод сжатия : С потерями
Бит/(Пиксели*Кадры) : 0.496
Размер потока : 934 Мбайт (91%)

Аудио
Идентификатор : 128 (0x80)
Формат : AC-3
Формат/Информация : Audio Coding 3
Расширение режима : CM (complete main)
Продолжительность : 25 м.
Вид битрейта : Постоянный
Битрейт : 384 Кбит/сек
Канал(ы) : 6 канала(ов)
Расположение каналов : Front: L C R, Side: L R, LFE
Частота : 48,0 КГц
Битовая глубина : 16 бит
Метод сжатия : С потерями
Задержка видео : -344 мс.
Размер потока : 69,8 Мбайт (7%)

Текст
Идентификатор : 32 (0x20)
Формат : RLE
Формат/Информация : Run-length encoding
Задержка видео : 1 с. 400 мс.

Меню
Свернуть
Изготовление релиза…
Исходник взят тут: Орел Девятого легиона / The Eagle (2011) DVD9. Удалены: предупреждения, заставки, дополнительные материалы и звуковая дорожка на Русском 2.0, в меню недействующие кнопки удалены, видеодорожка сжата на 35%. Обработка и сжатие проводились: DVD ReMake Pro + DVD Rebuilder + CCE SP2 1.00.01.09 [3 прохода] + Работа с меню (Adobe PhotoShop, MuxMan)
Свернуть
Свернуть

MPAA: Изображение
Качество: DVD5 (сжатый) R5
Формат: DVD Video
Видеокодек: MPEG-2
Видео: 720 x 576 (PAL 16:9), ~ 5000 kbps VBR
Аудио: AC3, 5.1, 384 kbps CBR - Russian

Скриншоты
Изображение
Изображение
Изображение
Изображение
Изображение
Изображение
Свернуть
Не в сети
Профиль  
 Добавлено: 2011-04-14 17:43 (спустя 1 день 2 часа)
Стаж: 7 лет 1 месяц
Сообщений: 87
СПАСИБО
Не в сети
Профиль  
 Добавлено: 2011-04-14 22:03 (спустя 4 часа)
Аватара пользователя
Стаж: 7 лет 7 месяцев
Сообщений: 90
Спасибок: 1
Как фильм? Качать?
Не в сети
Профиль  
 Добавлено: 2011-04-15 06:38 (спустя 8 часов)
Модератор
Аватара пользователя
Стаж: 8 лет 1 месяц
Возраст: 20
Сообщений: 32130
Спасибок: 98576
Лайков: 80
Качайте :)
Очень хороший фильмец :)
Не в сети
Профиль  
 Добавлено: 2011-04-16 00:15 (спустя 17 часов)
Аватара пользователя
Стаж: 7 лет 3 месяца
Возраст: 34
Сообщений: 127
Хорош фильм можно посмотреть и качество в поряде
Не в сети
Профиль  
 Добавлено: 2011-04-16 21:06 (спустя 20 часов)
Стаж: 6 лет 4 месяца
Возраст: 23
Сообщений: 13
Лайков: 1
Странно пробовал записывать фильм через Nero записал,и не пашет почему то !
Не в сети
Профиль  
 Добавлено: 2011-04-16 21:19 (спустя 12 минут)
Аватара пользователя
Стаж: 7 лет 7 месяцев
Сообщений: 90
Спасибок: 1

ugor18:

Странно пробовал записывать фильм через Nero записал,и не пашет почему то !
Записал на диск через Nero - всё работает. Плеер Ямаха, писал двд-видео.
Фильм понравился. Спасибо!
Не в сети
Профиль  
 Добавлено: 2011-04-18 16:22 (спустя 1 день 19 часов)
Стаж: 5 лет 11 месяцев
Сообщений: 3
да не плохой фильмец....
Не в сети
Профиль  
 Добавлено: 2011-04-18 19:29 (спустя 3 часа)
Аватара пользователя
Стаж: 8 лет 3 месяца
Возраст: 36
Сообщений: 121
ОО!! спасибо комрад Маме скачаю, она очень любит такую тематику,
Не в сети
Профиль  
 Добавлено: 2012-09-09 16:41 (спустя 1 год 4 месяца)
Аватара пользователя
Стаж: 8 лет 3 месяца
Сообщений: 16
Спасибок: 40
Да-да, спасибо, смотрел давно, фильм класс, тоже для матери скачаю))
Не в сети
Профиль  
Начать новую темуОтветить на тему  [ Сообщений: 10 ] 
Вы не можете начинать темы
Вы не можете отвечать на сообщения
Вы не можете редактировать свои сообщения
Вы не можете удалять свои сообщения