Правила форума

  • В этом разделе создание новых тем Запрещено.
  • Для создания новых тем пользуйтесь Корневым разделом DVD и HD фильмы.
Начать новую темуОтветить на тему  [ Сообщений: 5 ] 
Торрент файл
Размер: 3.99 GB • Зарегистрирован: 4 года 11 месяцев • Статус: Проверено
Скачан: 554 раза • Желающих скачать: 0 • Поблагодарили: 105 раз
 Раздают: 0  |  0 KB/s  ]   Качают: 0  |  0 KB/s  ] 
 Полного источника не было 2 года 6 месяцев 
Сообщения
 Добавлено: 2011-12-04 13:24
DVD Release Group
Аватара пользователя
Стаж: 7 лет 1 месяц
Сообщений: 3542
Спасибок: 246639
Лайков: 1016
Отряд особого назначения

Forces speciales


Изображение


Год выпуска: 2011
Страна: Франция
Жанр: Боевик, драма, приключения
Продолжительность: 01:44:21
Перевод: Профессиональный (полное дублирование)
Cубтитры: Украинские
Режиссер: Стефан Рибожа
В ролях: Дайан Крюгер, Джимон Хунсу, Бенуа Мажимель, Дэнис Меночет, Рафаэль Персонас, Ален Фиглаж, Ален Аливон, Мехди Неббу, Раз Деган, Чеки Карио
Описание: Молодая французская журналистка похищена в Афганистане талибами. Правительство Франции отказывается выполнять условия похитителей. Тогда талибы размещают в Интернете жестокое видео с обратным отсчетом времени до ее казни. На выручку девушке отправляется элитный отряд французского спецназа. Но мало отбить жертву у бандитов, нужно еще вывести ее на Большую землю. Возвращение домой становится крестным путем и для гражданской журналистки, и для бывалых вояк-спецназовцев.
Кинопоиск: 6.88 (262)
IMDb: 6.5 (80)
Бонусы: нет
Качество: DVD5
Формат: DVD Video
Видео кодек: MPEG2
Аудио кодек: AC3
Видео: 720x576 25.00fps 3598Kbps
Аудио:
Аудио Rus: 48kHz 6ch 384Kbps
Аудио Fra: 48kHz 6ch 384Kbps
"MediaInfo"

Общее
Полное имя : Отряд особого назначения DVD5\VIDEO_TS\VTS_03_1.VOB
Формат : MPEG-PS
Размер файла : 1024 Мбайт
Продолжительность : 32 м.
Режим общего битрейта : Переменный
Общий поток : 4455 Кбит/сек

Видео
Идентификатор : 224 (0xE0)
Формат : MPEG Video
Версия формата : Version 2
Профиль формата : Main@Main
Параметр BVOP формата : Да
Параметр матрицы формата : Выборочная
Продолжительность : 32 м.
Вид битрейта : Переменный
Битрейт : 3598 Кбит/сек
Максимальный битрейт : 8000 Кбит/сек
Ширина : 720 пикселей
Высота : 576 пикселей
Соотношение сторон : 16:9
Частота кадров : 25,000 кадров/сек
Стандарт вещания : PAL
Цветовое пространство : YUV
Субдискретизация насыщенности : 4:2:0
Битовая глубина : 8 бит
Тип развёртки : Чересстрочная
Порядок развёртки : Верхнее поле первое
Метод сжатия : С потерями
Бит/(Пиксели*Кадры) : 0.347
Размер потока : 827 Мбайт (81%)

Аудио #1
Идентификатор : 189 (0xBD)-128 (0x80)
Формат : AC-3
Формат/Информация : Audio Coding 3
Расширение режима : CM (complete main)
Режим смешивания : DVD-Video
Продолжительность : 32 м.
Вид битрейта : Постоянный
Битрейт : 384 Кбит/сек
Каналы : 6 каналов
Расположение каналов : Front: L C R, Side: L R, LFE
Частота : 48,0 КГц
Битовая глубина : 16 бит
Метод сжатия : С потерями
Размер потока : 88,2 Мбайт (9%)

Аудио #2
Идентификатор : 189 (0xBD)-129 (0x81)
Формат : AC-3
Формат/Информация : Audio Coding 3
Расширение режима : CM (complete main)
Режим смешивания : DVD-Video
Продолжительность : 32 м.
Вид битрейта : Постоянный
Битрейт : 384 Кбит/сек
Каналы : 6 каналов
Расположение каналов : Front: L C R, Side: L R, LFE
Частота : 48,0 КГц
Битовая глубина : 16 бит
Метод сжатия : С потерями
Размер потока : 88,2 Мбайт (9%)

Текст
Идентификатор : 189 (0xBD)-32 (0x20)
Формат : RLE
Формат/Информация : Run-length encoding
Режим смешивания : DVD-Video

Меню
Свернуть
"Скриншоты"

Изображение
Изображение
Изображение
Изображение
Изображение
Изображение
Изображение
Изображение
Свернуть
Раздача группы:
Изображение
В сети
Профиль  
 Добавлено: 2011-12-04 20:28 (спустя 7 часов)
Модератор
Аватара пользователя
Стаж: 6 лет 10 месяцев
Возраст: 33
Сообщений: 5908
Спасибок: 61239
Лайков: 3540
Отличный фильм, спасибо.
_________________
ИзображениеИзображение Изображение
Изображение
Не в сети
Профиль  
 Добавлено: 2011-12-09 14:52 (спустя 4 дня)
Аватара пользователя
Стаж: 7 лет 1 месяц
Сообщений: 60
да, мне про него рассказывали только хорошее :co_ol: :co_ol: :co_ol:
Не в сети
Профиль  
 Добавлено: 2011-12-13 22:25 (спустя 4 дня)
Аватара пользователя
Стаж: 7 лет 11 месяцев
Возраст: 35
Сообщений: 78
Спасибок: 137
Лайков: 7
только время потерял на просмотр, видимо денег на военных консультантов пожалели, ну кто так бой ведёт, ни где такое ереси не видел
Не в сети
Профиль  
 Добавлено: 2012-01-19 13:28 (спустя 1 месяц 5 дней)
Стаж: 6 лет 4 месяца
Сообщений: 8
А как его запустить и посмотреть.Закачал,а он весь отдельными частями и не открываеться.Подскажите пожалуйста.
Не в сети
Профиль  
Начать новую темуОтветить на тему  [ Сообщений: 5 ] 
Вы не можете начинать темы
Вы не можете отвечать на сообщения
Вы не можете редактировать свои сообщения
Вы не можете удалять свои сообщения