Правила форума

  • В этом разделе создание новых тем Запрещено.
  • Для создания новых тем пользуйтесь Корневым разделом DVD и HD фильмы.
Начать новую темуОтветить на тему  [ Сообщений: 3 ] 
Торрент файл
Размер: 5.76 GB • Зарегистрирован: 3 года 4 месяца • Статус: Проверено
Скачан: 62 раза • Желающих скачать: 0 • Поблагодарили: 13 раз
 Раздают: 0  |  0 KB/s  ]   Качают: 0  |  0 KB/s  ] 
 Полного источника не было 1 год 9 месяцев 
Сообщения
 Добавлено: 2013-07-14 11:11
Руководитель релиз-группы
Аватара пользователя
Стаж: 7 лет 5 месяцев
Возраст: 31
Сообщений: 3406
Спасибок: 46729
Лайков: 5
Изображение

Отвязные каникулы
Spring Breakers


Год выпуска: 2012
Страна: США
Слоган: «Wish You Were Here»
Жанр: драма
Продолжительность: 01:29:44
Перевод: Профессиональный (полное дублирование)
Режиссер: Хармони Корин
Сценарий: Хармони Корин
Продюсер: Чарльз Антониоз, Дэвид Зандер, Джордан Гертнер, Крис Хэнли, Джейн Хольцер
Оператор: Бенуа Деби
Композитор: Клифф Мартинес, Скриллекс
В ролях: Джеймс Франко, Эшли Бенсон, Ванесса Энн Хадженс, Селена Гомес, Рэйчел Корин, Гуччи Мэйн, Хизер Моррис, Эшли Лендцьон, Эмма Холцер, Ли Ирби, Джефф Джарретт, Расселл Карри
Бюджет: $5 000 000
Сборы в мире: $31 724 284
Описание: Четыре ученицы колледжа были лучшими подругами, начиная со школьной скамьи. Теперь они живут в скучном общежитии и жаждут приключений. Впереди весенние каникулы, и очень хочется провести их весело и незабываемо. Девчонки решают подзаработать денег, чтобы хватило оторваться по полной.
Правда, способ заработка денег героини выбирают не совсем обычный. Судьба сводит их с одним весьма сомнительным типом, торговцем наркотиками и оружием, и это знакомство обещает предоставить им массу острых ощущений, на которые они уже не могли и надеяться. Как далеко способны зайти девушки, чтобы получить каникулы, которые, уж будьте уверены, они никогда не забудут?
Изображение
MPAA: Изображение
Релиз: Изображение Раздача группы: Изображение
Качество: DVD9
Формат: DVD Video
Видео: MPEG2; PAL 16:9 (720x576)
Аудио #1: Dolby AC3, 6 ch, 448 Kbps Russian
Аудио #2: DTS, 5 ch, 1536 Kbps Russian
Субтитры: нет
Дополнительно: Анонсы
DVDInfo
    Title: Otvyaznye.kanikuly.2012.D.DVD9
    Size: 5.76 Gb ( 6 040 984,00 KBytes ) - DVD-9
    Enabled regions: 1, 2, 3, 4, 5, 6, 7, 8

    VTS_01 :
    Play Length: 00:00:15
    Video: PAL 4:3 (720x576) VBR
    Audio:
    Russian (LinearPCM, 2 ch)

    VTS_02 :
    Play Length: 00:00:07
    Video: PAL 16:9 (720x576) VBR, Auto Letterboxed
    Audio:
    Russian (LinearPCM, 2 ch)

    VTS_03 :
    Play Length: 01:29:44
    Video: PAL 16:9 (720x576) VBR, Auto Letterboxed
    Audio:
    Russian, AC3, 3/2 (L,C,R,SL,SR)+LFE ch, 448 kbps, Delay 0 mSec
    Russian, DTS, 3/2 (L,C,R,SL,SR), 1536 kbps, Delay 0 mSec

    VTS_04 :
    Play Length: 00:00:01
    Video: PAL 16:9 (720x576) VBR, Auto Letterboxed
    Audio:
    Russian (Dolby AC3, 2 ch)
    Russian (Dolby AC3, 2 ch)

    VTS_05 :
    Play Length: 00:00:01
    Video: PAL 16:9 (720x576) VBR, Auto Letterboxed
    Audio:
    Russian (Dolby AC3, 2 ch)
    Russian (Dolby AC3, 2 ch)

    VTS_06 :
    Play Length: 00:01:38
    Video: PAL 16:9 (720x576) VBR, Auto Letterboxed
    Audio:
    English (Dolby AC3, 2 ch)

    VTS_07 :
    Play Length: 00:01:47
    Video: PAL 16:9 (720x576) VBR, Auto Letterboxed
    Audio:
    English (Dolby AC3, 2 ch)

    VTS_08 :
    Play Length: 00:02:02
    Video: PAL 16:9 (720x576) VBR, Auto Letterboxed
    Audio:
    English (Dolby AC3, 2 ch)

    VTS_09 :
    Play Length: 00:01:37
    Video: PAL 16:9 (720x576) VBR, Auto Letterboxed
    Audio:
    Russian (LinearPCM, 2 ch)

    VTS_10 :
    Play Length: 00:00:58
    Video: PAL 16:9 (720x576) VBR, Auto Letterboxed
    Audio:
    Russian (LinearPCM, 2 ch)

    VTS_11 :
    Play Length: 00:01:49
    Video: PAL 16:9 (720x576) VBR, Auto Letterboxed
    Audio:
    Russian (LinearPCM, 2 ch)
Свернуть
mediainfo
    Формат : MPEG-PS
    Размер файла : 1024 Мбайт
    Продолжительность : 17 м.
    Режим общего битрейта : Переменный
    Общий поток : 8376 Кбит/сек

    Видео
    Идентификатор : 224 (0xE0)
    Формат : MPEG Video
    Версия формата : Version 2
    Профиль формата : Main@Main
    Параметр BVOP формата : Да
    Параметр матрицы формата : По умолчанию
    Параметр GOP формата : M=3, N=12
    Продолжительность : 17 м.
    Вид битрейта : Переменный
    Битрейт : 6251 Кбит/сек
    Максимальный битрейт : 7200 Кбит/сек
    Ширина : 720 пикселей
    Высота : 576 пикселей
    Соотношение сторон : 16:9
    Частота кадров : 25,000 кадров/сек
    Стандарт вещания : PAL
    Цветовое пространство : YUV
    Субдискретизация насыщенности : 4:2:0
    Битовая глубина : 8 бит
    Тип развёртки : Прогрессивная
    Метод сжатия : С потерями
    Бит/(Пиксели*Кадры) : 0.603
    Размер потока : 764 Мбайт (75%)

    Аудио #1
    Идентификатор : 189 (0xBD)-128 (0x80)
    Формат : AC-3
    Формат/Информация : Audio Coding 3
    Расширение режима : CM (complete main)
    Режим смешивания : DVD-Video
    Продолжительность : 17 м.
    Вид битрейта : Постоянный
    Битрейт : 448 Кбит/сек
    Каналы : 6 каналов
    Расположение каналов : Front: L C R, Side: L R, LFE
    Частота : 48,0 КГц
    Битовая глубина : 16 бит
    Метод сжатия : С потерями
    Размер потока : 54,8 Мбайт (5%)

    Аудио #2
    Идентификатор : 189 (0xBD)-137 (0x89)
    Формат : DTS
    Формат/Информация : Digital Theater Systems
    Режим смешивания : DVD-Video
    Продолжительность : 17 м.
    Вид битрейта : Постоянный
    Битрейт : 1510 Кбит/сек
    Каналы : 6 каналов
    Расположение каналов : Front: L C R, Side: L R, LFE
    Частота : 48,0 КГц
    Битовая глубина : 16 бит
    Метод сжатия : С потерями
    Размер потока : 185 Мбайт (18%)

    Меню

Свернуть
Знаете ли Вы, что...
  • Хармони Корин предлагал Селене Гомес сыграть роль Brit (Эшли Бенсон) или Candy (Ванесса Энн Хадженс), но Селена отказалась, сказав, что она ещё не готова к таким откровенным ролям.
  • Гангстер носит очки с надписью Gucci Mane. Актер Гуччи Мэйн играет роль Арчи в этом фильме.
  • Ванесса Энн Хадженс носила парик во время съемок фильма.
  • Режиссер и сценарист фильма Хармони Корин написал сценарий ленты за 10 дней.
  • Изначально роль Брит должна была играть Эмма Робертс, но из-за несовпадения графиков она отказалась от проекта, и на ее место была взята Эшли Бенсон.
  • Селена Гомес напрочь отказалась раздеваться перед камерой, поэтому в некоторых сценах за нее играет дублерша.
  • Для имитации употребления кокаина девушкам пришлось нюхать измельченный витамин B-12.
  • Персонаж Джеймса Франко создан по образу рэп-исполнителя Dangeruss. Ходило много слухов о том, что прообразом для персонажа был другой рэп-исполнитель по имени Riff Raff. Но Франко пролил свет на ситуацию в своем интервью GQ в 2012 году.
  • Сцены, которые происходят в школе, были сняты в New College of Florida в Сарасоте, штат Флорида.
  • Рэйчел Корин состоит в браке с режиссером Хармони Корином.
  • Мать Селены Гомес убедила ее лично поехать домой к Хармони Корину на прослушивание для фильма.
  • Первый фильм с рейтингом R с участием Селены Гомес.
  • Из четырех девушек меньше всех в фильме показывают Селену Гомес.
  • еще 10 фактов
Свернуть
Скриншоты

меню
Изображение

Изображение

Изображение

Изображение
Свернуть
Изображение

Изображение

Изображение
Свернуть
Не в сети
Профиль  
 Добавлено: 2013-07-24 18:27 (спустя 10 дней)
Стаж: 6 лет
Сообщений: 1
как фильм ? :ps_ih:
Не в сети
Профиль  
 Добавлено: 2013-07-30 17:20 (спустя 5 дней)
Аватара пользователя
Стаж: 7 лет 5 месяцев
Сообщений: 35
Спасибок: 1916
Никакого сюжета, бредядита
Не в сети
Профиль  
Начать новую темуОтветить на тему  [ Сообщений: 3 ] 
Вы не можете начинать темы
Вы не можете отвечать на сообщения
Вы не можете редактировать свои сообщения
Вы не можете удалять свои сообщения