Правила форума

  • В этом разделе создание новых тем Запрещено.
  • Для создания новых тем пользуйтесь Корневым разделом DVD и HD фильмы.
Начать новую темуОтветить на тему  [ 1 сообщение ] 
Торрент файл
Размер: 4.37 GB • Зарегистрирован: 4 года 5 месяцев • Статус: Проверено
Скачан: 94 раза • Желающих скачать: 0 • Поблагодарили: 20 раз
 Раздают: 0  |  0 KB/s  ]   Качают: 0  |  0 KB/s  ] 
 Полного источника не было 2 года 7 месяцев 
Сообщения
 Добавлено: 2012-07-04 05:29
DVD Release Group
Аватара пользователя
Стаж: 7 лет 1 месяц
Сообщений: 3569
Спасибок: 247797
Лайков: 1020
Папаши без вредных привычек

On ne choisit pas sa famille


Изображение


Год выпуска: 2011
Страна: Франция
Жанр: Комедия, приключения
Продолжительность: 01:37:17
Перевод: Профессиональный (полное дублирование)
Cубтитры: Русские
Режиссер: Кристиан Клавье
В ролях: Кристиан Клавье, Жан Рено, Мюриэль Робен, Элена Ногуэрра, Мишель Вюйермоз, Майли Флорентин Дао, Хелен Патаро, Анна Гейлор, Кэролайн Англаде, Софи-Шарлотт Хассон
Описание: Алекс хочет удочерить очаровательную 5 — летнюю малышку Майли, которая живет в Таиланде. Но по законам этой страны приёмные родители должны быть официально зарегистрированной супружеской парой. Алекс подбивает своего брата, Сезара Борньоли, разорившегося автомобильного дилера, на аферу: он должен поехать с супругой Алекс, Ким в Таиланд, изображая её супруга, что бы забрать оттуда девочку.
Но трудно найти более непохожих людей, чем Ким и Сезар. А доктор Луиш, опекун девочки, начинает подозревать неладное…
Кинопоиск: 7.0 (337)
IMDb: 4.9 (114)
Дополнительно:
Исходник: DVD9 (6.4Гб) [лицензия, PAL 16:9].
Убрано: Russian (AC3, 2 ch), заставки и предупреждение.
Сжатие фильма 34% сжатия (без учета ручного перераспределения битрейта, за счет большего сжатия конечных титров).
Работоспособность проверена на софтовом плеере Windows Media и бытовом LG.
Качество: DVD5 (сжатый)
Формат: DVD Video
Видео кодек: MPEG2
Аудио кодек: AC3
Видео: 720х576 25fps 5455Kbps
Аудио:
Аудио Rus: 48kHz 6ch 384Kbps
Аудио Fra: 48kHz 6ch 384Kbps
"MediaInfo"
Формат : MPEG-PS
Размер файла : 1024 Мбайт
Продолжительность : 22 м.
Режим общего битрейта : Переменный
Общий поток : 6349 Кбит/сек

Видео
Идентификатор : 224 (0xE0)
Формат : MPEG Video
Версия формата : Version 2
Профиль формата : Main@Main
Параметр BVOP формата : Да
Параметр матрицы формата : Выборочная
Продолжительность : 22 м.
Вид битрейта : Переменный
Битрейт : 5455 Кбит/сек
Ширина : 720 пикселей
Высота : 576 пикселей
Соотношение сторон : 2,35:1
Частота кадров : 25,000 кадров/сек
Стандарт вещания : PAL
Цветовое пространство : YUV
Субдискретизация насыщенности : 4:2:0
Битовая глубина : 8 бит
Метод сжатия : С потерями
Бит/(Пиксели*Кадры) : 0.526
Размер потока : 880 Мбайт (86%)

Аудио #1
Идентификатор : 189 (0xBD)-128 (0x80)
Формат : AC-3
Формат/Информация : Audio Coding 3
Расширение режима : CM (complete main)
Режим смешивания : DVD-Video
Продолжительность : 22 м.
Вид битрейта : Постоянный
Битрейт : 384 Кбит/сек
Каналы : 6 каналов
Расположение каналов : Front: L C R, Side: L R, LFE
Частота : 48,0 КГц
Битовая глубина : 16 бит
Метод сжатия : С потерями
Размер потока : 61,9 Мбайт (6%)

Аудио #2
Идентификатор : 189 (0xBD)-130 (0x82)
Формат : AC-3
Формат/Информация : Audio Coding 3
Расширение режима : CM (complete main)
Режим смешивания : DVD-Video
Продолжительность : 22 м.
Вид битрейта : Постоянный
Битрейт : 384 Кбит/сек
Каналы : 6 каналов
Расположение каналов : Front: L C R, Side: L R, LFE
Частота : 48,0 КГц
Битовая глубина : 16 бит
Метод сжатия : С потерями
Размер потока : 61,9 Мбайт (6%)

Текст
Идентификатор : 189 (0xBD)-32 (0x20)
Формат : RLE
Формат/Информация : Run-length encoding
Режим смешивания : DVD-Video

Меню
Свернуть

"Скриншоты"
Изображение
Изображение
Изображение
Изображение
Изображение
Изображение
Изображение
Изображение
Изображение
Свернуть

Раздача группы:
Изображение
Не в сети
Профиль  
Начать новую темуОтветить на тему  [ 1 сообщение ] 
Вы не можете начинать темы
Вы не можете отвечать на сообщения
Вы не можете редактировать свои сообщения
Вы не можете удалять свои сообщения