Правила форума

  • В этом разделе создание новых тем Запрещено.
  • Для создания новых тем пользуйтесь Корневым разделом DVD и HD фильмы.
Начать новую темуОтветить на тему  [ Сообщений: 6 ] 
Торрент файл
Размер: 7.67 GB • Зарегистрирован: 4 года 2 месяца • Статус: Проверено
Скачан: 181 раз • Желающих скачать: 0 • Поблагодарили: 35 раз
 Раздают: 0  |  0 KB/s  ]   Качают: 0  |  0 KB/s  ] 
 Полного источника не было 3 года 
Сообщения
 Добавлено: 2012-09-23 00:37
Аватара пользователя
Стаж: 5 лет 6 месяцев
Возраст: 30
Сообщений: 353
Спасибок: 7455
Параллельные миры / Upside Down

Изображение


Год выпуска: 2012
Страна: Канада, Франция (Jouror Productions, Onyx Films, Studio 37, Transfilm)
Слоган: «Упасть, чтобы взлететь»
Жанр: фэнтези, мелодрама
Продолжительность: 01:43:28
Перевод: Профессиональный (дубляж)
Дублеры: Василиса Воронина, Всеволод Кузнецов, Александр Гаврилин, Денис Беспалый, Михаил Тихонов ...
Субтитры: Нет

Режиссёр: Хуан Диего Соланас / Juan Diego Solanas
Сценарист: Сантьяго Амигорена, Харрис Демель, Хуан Диего Соланас
Продюсер: Харрис Демель, Алексис Вонарб, Клод Леже
Оператор: Пьер Жиль
Композитор: Бенуа Шаре
В ролях: Кирстен Данст, Джим Стёрджесс, Нил Напье, Стелла Маив, Джэйн Хейтмейер, Ларри Дэй, Джон МакЛарен, Дон Джордан, Холли О’Брайэн

Описание: Однажды, несколько тысяч лет тому назад, две планеты притянулись друг к другу. Там правили мир и гармония. Но стоило верхнему миру обрести уверенность и власть, как между планетами началось противостояние. Казалось, ничто не может примирить параллельные миры.
Она — дочь президента верхнего мира. Эта хрупкая девушка с сильным характером и не подозревала, что душа ее способна любить. Он — ее половина. Их встреча была предопределена свыше, их судьбы переплелись воедино. Сможет ли Он, вопреки законам физики своего мира, быть вместе со своей любимой?

Доп.информация: Нет
Рейтинг MPAA: Рейтинг R (Подростки до 17 лет допускаются на фильм только в сопровождении одного из родителей)
Мировая премьера: 22 августа 2012
Премьера в России: 23 августа 2012, «Люксор»
Бюджет: $72 000 000

Изображение Изображение Изображение

Качество: DVD9 R5
Формат: DVD Video
Видео кодек: MPEG2
Аудио кодек: AC3 (Dolby Digital)
Видео: PAL 16:9 (720x576(0.900)) MPEG Video, 25,000 кадр/сек, 9000 Кбит/сек
Аудио #1: Russian (Dolby AC3, 6 ch) 448 Кбит/сек, 48,0 КГц [Профессиональный (дубляж)]
Субтитры: Нет

"DVDInfo"
Title: Paralellnie.miry.2012.DVD9
Size: 7.67 Gb ( 8 038 734,00 KBytes ) - DVD-9
Enabled regions: 1, 2, 3, 4, 5, 6, 7, 8

VTS_01 :
Play Length: 01:43:28
Video: PAL 16:9 (720x576) VBR, Auto Letterboxed
Audio:
Russian (Dolby AC3, 6 ch)

* Menus Information *

VIDEO_TS Menu
Video:
PAL 16:9 (720x576) VBR
Auto Letterboxed
Audio:
Not specified (Dolby AC3, 2 ch)
Russian Language Unit :
Title Menu

VTS_01 Menu
Video:
PAL 16:9 (720x576) VBR
Auto Letterboxed
Audio:
Not specified (Dolby AC3, 2 ch)
Russian Language Unit :
Root Menu
Свернуть

"MediaInfo"
Общее
Полное имя : J:\Новинки 2012\Paralellnie.miry.2012.DVD9\VIDEO_TS\VTS_01_1.VOB
Формат : MPEG-PS
Размер файла : 1024 Мбайт
Продолжительность : 14 м.
Общий поток : 9981 Кбит/сек

Видео
Идентификатор : 224 (0xE0)
Формат : MPEG Video
Версия формата : Version 2
Профиль формата : Main@Main
Параметр BVOP формата : Да
Параметр матрицы формата : Выборочная
Параметр GOP формата : M=3, N=15
Продолжительность : 14 м.
Битрейт : 9334 Кбит/сек
Максимальный битрейт : 9000 Кбит/сек
Ширина : 720 пикселей
Высота : 576 пикселей
Соотношение сторон : 16:9
Частота кадров : 25,000 кадров/сек
Стандарт вещания : PAL
Цветовое пространство : YUV
Субдискретизация насыщенности : 4:2:0
Битовая глубина : 8 бит
Тип развёртки : Чересстрочная
Порядок развёртки : Верхнее поле первое
Метод сжатия : С потерями
Бит/(Пиксели*Кадры) : 0.900
Размер потока : 957 Мбайт (94%)

Аудио
Идентификатор : 189 (0xBD)-128 (0x80)
Формат : AC-3
Формат/Информация : Audio Coding 3
Расширение режима : CM (complete main)
Параметр Endianness формата : Big
Режим смешивания : DVD-Video
Продолжительность : 14 м.
Вид битрейта : Постоянный
Битрейт : 448 Кбит/сек
Каналы : 6 каналов
Расположение каналов : Front: L C R, Side: L R, LFE
Частота : 48,0 КГц
Битовая глубина : 16 бит
Метод сжатия : С потерями
Задержка видео : -80 мс.
Размер потока : 45,9 Мбайт (4%)

Свернуть


Скриншоты
Скриншоты меню
Изображение
Изображение
Свернуть
Изображение
Изображение
Изображение
Изображение
Изображение
Изображение
Изображение
Изображение
Изображение
Изображение
Свернуть

Знаете ли Вы, что...
Когда зачитывают список сотрудников, в чьих услугах компания Трансмир больше не нуждается, то называют имя режиссера Хуан Соланс.
Свернуть

Изображение
Не в сети
Профиль  
 Добавлено: 2012-09-23 21:16 (спустя 20 часов)
Стаж: 7 лет
Сообщений: 2
Красиво, скачал - а зввук тоько на английском и французком рубит, на Русскум отталенное эхо. Что за ....?
Не в сети
Профиль  
 Добавлено: 2012-09-24 10:47 (спустя 13 часов)
Стаж: 8 лет
Сообщений: 219
Лайков: 18
Хм заметное достижение - Кирстен Данст судя по скринам не напоминает своим видом тут дешёвую шлюху в отличии от того как было в Спайдермене.
Не в сети
Профиль  
 Добавлено: 2012-09-27 21:00 (спустя 3 дня)
Аватара пользователя
Стаж: 9 лет
Сообщений: 48
Спасибок: 121
Лайков: 2

Powerhead74:

Хм заметное достижение - Кирстен Данст судя по скринам не напоминает своим видом тут дешёвую шлюху в отличии от того как было в Спайдермене.
теперь напоминает дорогую? :ni_zia:
Не в сети
Профиль  
 Добавлено: 2012-10-01 09:49 (спустя 3 дня)
Аватара пользователя
Стаж: 8 лет 6 месяцев
Сообщений: 12
Фильм на 1 раз: посмотрел и забыл :ze_va_et:
Не в сети
Профиль  
 Добавлено: 2012-10-01 18:13 (спустя 8 часов)
Стаж: 7 лет 11 месяцев
Возраст: 39
Сообщений: 509
Лайков: 2
zorro07
согласен. концепция утратила актуальность :)
Не в сети
Профиль  
Начать новую темуОтветить на тему  [ Сообщений: 6 ] 
Вы не можете начинать темы
Вы не можете отвечать на сообщения
Вы не можете редактировать свои сообщения
Вы не можете удалять свои сообщения