Правила форума

  • В этом разделе создание новых тем Запрещено.
  • Для создания новых тем пользуйтесь Корневым разделом DVD и HD фильмы.
Начать новую темуОтветить на тему  [ Сообщений: 5 ] 
Торрент файл
Размер: 5.2 GB • Зарегистрирован: 4 года 10 месяцев • Статус: Проверено
Скачан: 80 раз • Желающих скачать: 0 • Поблагодарили: 15 раз
 Раздают: 0  |  0 KB/s  ]   Качают: 0  |  0 KB/s  ] 
 Полного источника не было 2 года 4 месяца 
Сообщения
 Добавлено: 2012-01-21 14:12
Аватара пользователя
Стаж: 5 лет 5 месяцев
Возраст: 30
Сообщений: 353
Спасибок: 7455
Паранормальное явление 3 / Paranormal Activity 3

Изображение


Год выпуска: 2011
Страна: США (Blumhouse Productions, Paramount Pictures)
Слоган: «Узнайте, как всё началось»
Жанр: ужасы, триллер
Продолжительность: 01:33:59
Перевод: Профессиональный (дубляж)
Дублеры: Татьяна Шитова, Даниил Щебланов, Василий Зотов, Василиса Воронина, Маша Емельянова + Оригинальная звуковая дорожка
Субтитры: Нет

Режиссёр: Генри Джуст, Эриель Шульман / Henry Joost, Ariel Schulman
Сценарист: Кристофер Б. Лэндон, Орен Пели
Продюсер: Джейсон Блум, Орен Пели, Стивен Шнайдер
Оператор: Магдалена Бачман

В ролях: Спрэг Грэйден, Кристофер Николас Смит, Дастин Ингрэм, Кэти Фезерстон, Лоурен Биттнер, Хлоя Ксенджери, Джесика Браун, Брайан Боланд, Марк Фредерикс
Описание: Действие фильма разворачивается в 1988 году. В доме, где живет семья с двумя детьми, начинают происходить странные вещи. Кристи, одна из девочек, начинает общаться с невидимым другом Тоби, который поселился в их доме.

Доп.информация: Смотрите на DVD
Рейтинг MPAA: Рейтинг R (Подростки до 17 лет допускаются на фильм только в сопровождении одного из родителей)
Мировая премьера: 14 октября 2011
Премьера в России: 20 октября 2011, «Централ Партнершип»
Бюджет: $5 000 000
Кассовые сборы: + $100 275 542 = $204 304 349

Изображение Изображение Изображение

Качество: DVD9
Формат: DVD Video
Видео кодек: MPEG2
Аудио кодек: AC3 (Dolby Digital)
Видео: PAL 16:9 (720x576(0.722)) MPEG Video, 25,000 кадр/сек, 7483 Кбит/сек
Аудио #1: Russian (Dolby AC3, 6 ch) 384 Кбит/сек, 48,0 КГц [Профессиональный (дубляж)]
Аудио #2: English (Dolby AC3, 2 ch) 384 Кбит/сек, 48,0 КГц [Оригинальная звуковая дорожка]
Субтитры: Нет

"DVDInfo"
Title:
Size: 5.20 Gb ( 5 447 922 KBytes ) - DVD-9
Enabled regions: 1, 2, 3, 4, 5, 6, 7, 8

VTS_01 :
Play Length: 00:00:26
Video: PAL 16:9 (720x576) VBR, Auto Letterboxed
Audio:
Russian (Dolby AC3, 6 ch)

VTS_02 :
Play Length: 01:20:35
Video: PAL 16:9 (720x576) VBR, Auto Letterboxed
Audio:
Russian (Dolby AC3, 6 ch)
English (Dolby AC3, 2 ch)

VTS_03 :
Play Length: 00:02:03+00:02:17+00:02:24
Video: PAL 16:9 (720x576) VBR, Auto Letterboxed
Audio:
Russian (Dolby AC3, 2 ch)
Свернуть

"MediaInfo"
Общее
Полное имя : G:\Новинки 2012\Paranormal'noe.javlenie.3.D.2011.DVD\VIDEO_TS\VTS_02_2.VOB
Формат : MPEG-PS
Размер файла : 1000 Мбайт
Продолжительность : 16 м.
Общий поток : 8419 Кбит/сек

Видео
Идентификатор : 224 (0xE0)
Формат : MPEG Video
Версия формата : Version 2
Профиль формата : Main@Main
Параметр BVOP формата : Да
Параметр матрицы формата : По умолчанию
Параметр GOP формата : M=3, N=12
Продолжительность : 16 м.
Битрейт : 7483 Кбит/сек
Максимальный битрейт : 7500 Кбит/сек
Ширина : 720 пикселей
Высота : 576 пикселей
Соотношение сторон : 16:9
Частота кадров : 25,000 кадров/сек
Стандарт вещания : PAL
Цветовое пространство : YUV
Субдискретизация насыщенности : 4:2:0
Битовая глубина : 8 бит
Тип развёртки : Чересстрочная
Порядок развёртки : Верхнее поле первое
Метод сжатия : С потерями
Бит/(Пиксели*Кадры) : 0.722
Размер потока : 889 Мбайт (89%)

Аудио #1
Идентификатор : 189 (0xBD)-128 (0x80)
Формат : AC-3
Формат/Информация : Audio Coding 3
Расширение режима : CM (complete main)
Режим смешивания : DVD-Video
Продолжительность : 16 м.
Вид битрейта : Постоянный
Битрейт : 384 Кбит/сек
Каналы : 6 каналов
Расположение каналов : Front: L C R, Side: L R, LFE
Частота : 48,0 КГц
Битовая глубина : 16 бит
Метод сжатия : С потерями
Задержка видео : -304 мс.
Размер потока : 45,6 Мбайт (5%)

Аудио #2
Идентификатор : 189 (0xBD)-129 (0x81)
Формат : AC-3
Формат/Информация : Audio Coding 3
Расширение режима : CM (complete main)
Режим смешивания : DVD-Video
Продолжительность : 16 м.
Вид битрейта : Постоянный
Битрейт : 384 Кбит/сек
Каналы : 2 канала
Расположение каналов : Front: L R
Частота : 48,0 КГц
Битовая глубина : 16 бит
Метод сжатия : С потерями
Задержка видео : -304 мс.
Размер потока : 45,6 Мбайт (5%)

Свернуть

Скриншоты
Скриншоты меню
Изображение
Изображение
Изображение
Свернуть
Изображение
Изображение
Изображение
Изображение
Изображение
Изображение
Изображение
Изображение
Свернуть


Изображение
Не в сети
Профиль  
 Добавлено: 2012-01-21 22:28 (спустя 8 часов)
Стаж: 5 лет 9 месяцев
Сообщений: 625
Лайков: 43
Как качество, как звук, стоит качать или лучше дождаться лицензии???
Не в сети
Профиль  
 Добавлено: 2012-01-22 01:44 (спустя 3 часа)
Аватара пользователя
Стаж: 8 лет 5 месяцев
Сообщений: 565
Спасибок: 6266
Лайков: 1
Petruha
дождаться лиц!
Не в сети
Профиль  
 Добавлено: 2012-01-22 02:22 (спустя 38 минут)
Модератор
Аватара пользователя
Стаж: 8 лет 11 месяцев
Сообщений: 516
Спасибок: 26888
Лайков: 1
До первых двух частей уже не дотягивает.
Не в сети
Профиль  
 Добавлено: 2012-01-22 17:03 (спустя 14 часов)
Кинокомментатор
Аватара пользователя
Стаж: 9 лет
Сообщений: 1331
Лайков: 52
субтитров нет) а они нужны? лучше подождать с сабами? мб разговоры демона будут в сабах))) а?
_________________
Я ВКонтакте
Не в сети
Профиль  
Начать новую темуОтветить на тему  [ Сообщений: 5 ] 
Вы не можете начинать темы
Вы не можете отвечать на сообщения
Вы не можете редактировать свои сообщения
Вы не можете удалять свои сообщения