Правила форума

  • В этом разделе создание новых тем Запрещено.
  • Для создания новых тем пользуйтесь Корневым разделом DVD и HD фильмы.
Начать новую темуОтветить на тему  [ Сообщений: 9 ] 
Торрент файл
Размер: 6.78 GB • Зарегистрирован: 3 года 6 месяцев • Статус: Проверено
Скачан: 109 раз • Желающих скачать: 0 • Поблагодарили: 33 раза
 Раздают: 0  |  0 KB/s  ]   Качают: 0  |  0 KB/s  ] 
 Полного источника не было 1 год 10 месяцев 
Сообщения
 Добавлено: 2013-05-26 01:56
Руководитель релиз-группы
Аватара пользователя
Стаж: 7 лет 4 месяца
Возраст: 31
Сообщений: 3407
Спасибок: 46729
Лайков: 5
Изображение

Паркер
Parker


Год выпуска: 2013
Страна: США
Слоган: «To get away clean, you have to play dirty.»
Жанр: боевик, триллер, криминал
Продолжительность: 01:53:43
Перевод: Профессиональный (полное дублирование) [лицензия]
Режиссер: Тейлор Хэкфорд
Сценарий: Джон Дж. МакЛафлин, Дональд Э. Уэстлейк
Продюсер: Лес Александр, Джонатан Митчелл, Стив Чэсмэн, Тейлор Хэкфорд, Сидни Киммел
Оператор: Дж. Майкл Муро
Композитор: Дэвид Бакли
В ролях: Джейсон Стэйтем, Дженнифер Лопез, Майкл Чиклис, Бобби Каннавале, Ник Нолти, Уенделл Пирс, Клифтон Коллинз мл., Пэтти ЛюПон, Карлос Карраско, Майка А. Хауптмен, Эмма Бут, Дэниэл Бернхард
Бюджет: $35 000 000
Сборы в мире: $46 346 651
Описание: Главный герой - профессиональный вор, руководствующийся собственным моральным кодексом, но способный запросто отправить на тот свет любого, кто перейдет ему дорогу.
Изображение
MPAA: Изображение
Релиз: Изображение Раздача группы: Изображение
Качество: DVD9
Формат: DVD Video
Видео: MPEG2; PAL 16:9 (720x576)
Аудио: Dolby AC3, 6 ch, 256 Kbps Russian
Субтитры: нет
Дополнительно: нет
DVDInfo
    Title: Parker.2013.D.DVD9
    Size: 6.78 Gb ( 7 109 306,00 KBytes ) - DVD-9
    Enabled regions: 1, 2, 3, 4, 5, 6, 7, 8

    VTS_01 :
    Play Length: 00:00:19
    Video: PAL 16:9 (720x576) VBR, Auto Pan&Scan, Auto Letterboxed
    Audio:
    Not specified (Dolby AC3, 2 ch)

    VTS_02 :
    Play Length: 00:00:15
    Video: PAL 16:9 (720x576) VBR, Auto Pan&Scan, Auto Letterboxed
    Audio:
    Not specified (Dolby AC3, 2 ch)

    VTS_03 :
    Play Length: 01:53:43
    Video: PAL 16:9 (720x576) VBR, Auto Letterboxed
    Audio:
    Not specified, AC3, 3/2 (L,C,R,SL,SR)+LFE ch, 256 kbps, Delay 0 mSec
Свернуть
mediainfo
    Формат : MPEG-PS
    Размер файла : 1024 Мбайт
    Продолжительность : 16 м.
    Режим общего битрейта : Переменный
    Общий поток : 8940 Кбит/сек

    Видео
    Идентификатор : 224 (0xE0)
    Формат : MPEG Video
    Версия формата : Version 2
    Профиль формата : Main@Main
    Параметр BVOP формата : Да
    Параметр матрицы формата : Выборочная
    Параметр GOP формата : M=3, N=15
    Продолжительность : 16 м.
    Вид битрейта : Переменный
    Битрейт : 8506 Кбит/сек
    Максимальный битрейт : 9000 Кбит/сек
    Ширина : 720 пикселей
    Высота : 576 пикселей
    Соотношение сторон : 16:9
    Частота кадров : 25,000 кадров/сек
    Стандарт вещания : PAL
    Цветовое пространство : YUV
    Субдискретизация насыщенности : 4:2:0
    Битовая глубина : 8 бит
    Тип развёртки : Чересстрочная
    Порядок развёртки : Верхнее поле первое
    Метод сжатия : С потерями
    Бит/(Пиксели*Кадры) : 0.820
    Размер потока : 974 Мбайт (95%)

    Аудио
    Идентификатор : 189 (0xBD)-128 (0x80)
    Формат : AC-3
    Формат/Информация : Audio Coding 3
    Расширение режима : CM (complete main)
    Режим смешивания : DVD-Video
    Продолжительность : 16 м.
    Вид битрейта : Постоянный
    Битрейт : 256 Кбит/сек
    Каналы : 6 каналов
    Расположение каналов : Front: L C R, Side: L R, LFE
    Частота : 48,0 КГц
    Битовая глубина : 16 бит
    Метод сжатия : С потерями
    Размер потока : 29,3 Мбайт (3%)

    Меню

Свернуть
Знаете ли Вы, что...
  • Это первая адаптация романа из цикла «Паркер» Дональда Э. Уэстлейка (псевдоним - Richard Stark) с использованием имени персонажа - Паркера. В фильме «Расплата» (1999), снятому по роману «Охотник» (The Hunter), использовалось имя Портер. Уэстлейк скончался 31 декабря 2008 года.
Свернуть
Скриншоты

меню
Изображение

Изображение
Свернуть
Изображение

Изображение

Изображение

Изображение
Свернуть
Не в сети
Профиль  
 Добавлено: 2013-05-28 14:55 (спустя 2 дня 12 часов)
DVD Release Group
Аватара пользователя
Стаж: 7 лет 9 месяцев
Сообщений: 364
Спасибок: 3086
Лайков: 10
Автору спасибо.

Не могу, не восхитится кривизной R5, не перестают удивлять.
Отчего ж со звуком то все так чопорно и черство, да еще ничем не обоснованное отсутствие оригинальной дорожки на DVD9. Но R5 можно творить любые непотребства. :ps_ih:

askboy выложил эту дивидишку в исходном виде. Это к тому, что здесь я не высказываю каких-то необоснованных претензий к автору, а надеюсь позднее увидеть качественный сжатый релиз – сжатие видео + пересборка звука (типа как в фильме «Напролом» 256 Kbps – 448 Kbps). :)
Не в сети
Профиль  
 Добавлено: 2013-05-28 18:06 (спустя 3 часа)
Аватара пользователя
Стаж: 7 лет 1 месяц
Возраст: 28
Сообщений: 161
Спасибок: 95
А DVD5 будет? Или этот качать?
Не в сети
Профиль  
 Добавлено: 2013-05-30 08:04 (спустя 1 день 13 часов)
DVD Release Group
Аватара пользователя
Стаж: 7 лет 9 месяцев
Сообщений: 364
Спасибок: 3086
Лайков: 10
Jordjio888
Похоже, придется из блрика собрать. :du_ma_et:
Не в сети
Профиль  
 Добавлено: 2013-05-30 18:09 (спустя 10 часов)
Аватара пользователя
Стаж: 7 лет 1 месяц
Возраст: 28
Сообщений: 161
Спасибок: 95
Кто бы сделал)))) :-[
Не в сети
Профиль  
 Добавлено: 2013-05-30 22:47 (спустя 4 часа)
DVD Release Group
Аватара пользователя
Стаж: 7 лет 9 месяцев
Сообщений: 364
Спасибок: 3086
Лайков: 10
Jordjio888
Качаю Remux, начну делать. Правда, со свободным временем некоторый напряг. Может получиться не так быстро, как хотелось бы. :a_g_a:
Не в сети
Профиль  
 Добавлено: 2013-06-02 21:15 (спустя 2 дня 22 часа)
Аватара пользователя
Стаж: 7 лет 1 месяц
Возраст: 28
Сообщений: 161
Спасибок: 95
Давай, буду ждать))))
Не в сети
Профиль  
 Добавлено: 2013-06-04 13:49 (спустя 1 день 16 часов)
DVD Release Group
Аватара пользователя
Стаж: 7 лет 9 месяцев
Сообщений: 364
Спасибок: 3086
Лайков: 10
Jordjio888
Собрал:
Parker Blu-ray > DVD5 (Custom) dvd-i-hd-filmi-f1743/parker-parker-teylor-hekford-t510188.html :)
Не в сети
Профиль  
 Добавлено: 2013-06-06 18:19 (спустя 2 дня 4 часа)
Аватара пользователя
Стаж: 7 лет 1 месяц
Возраст: 28
Сообщений: 161
Спасибок: 95
Спасибо, иду качать!!! :bra_vo:
Не в сети
Профиль  
Начать новую темуОтветить на тему  [ Сообщений: 9 ] 
Вы не можете начинать темы
Вы не можете отвечать на сообщения
Вы не можете редактировать свои сообщения
Вы не можете удалять свои сообщения