Правила форума

  • В этом разделе создание новых тем Запрещено.
  • Для создания новых тем пользуйтесь Корневым разделом DVD и HD фильмы.
Начать новую темуОтветить на тему  [ 1 сообщение ] 
Торрент файл
Размер: 4.17 GB • Зарегистрирован: 2 года 9 месяцев • Статус: Проверено
Скачан: 14 раз • Желающих скачать: 0 • Поблагодарили: 7 раз
 Раздают: 0  |  0 KB/s  ]   Качают: 0  |  0 KB/s  ] 
 Полного источника не было 1 год 
Сообщения
 Добавлено: 2014-02-07 12:53
DVD Release Group
Аватара пользователя
Стаж: 7 лет 1 месяц
Сообщений: 3549
Спасибок: 247055
Лайков: 1018
Парклэнд

Parkland


Изображение


Год выпуска: 2013
Страна: США
Жанр: Триллер, драма, детектив
Продолжительность: 01:29:41
Перевод: Профессиональный (полное дублирование)
Cубтитры: Нет
Режиссер: Питер Ландесман
В ролях: Зак Эфрон, Марша Гей Харден, Билли Боб Торнтон, Джеки Уивер, Пол Джаматти, Мэтт Барр, Мэллори Мой, Битси Таллоч, Рон Ливингстон, Джейсон Дуглас
Описание: 1963 год. 22 ноября. Даллас. 11:50. Президентский кортеж движется в центр города. 12:30. Раздаются роковые выстрелы. 13:00. Госпиталь Парклэнд. 35-й президент США скончался.
Что стало поводом к убийству президента? Вопрос, который вот уже полвека держит в напряжении человечество… Последняя версия одного из самых громких и неразгаданных преступлений XX века, убийство Джона Ф. Кеннеди — любимого страной президента, молодого умного политика, гениального любовника, водившего опасные романы — с Мэрлин Монро и еще сотнями красивейших женщин Америки.
Изображение
Качество: DVD5
Формат: DVD Video
Видео кодек: MPEG2
Аудио кодек: AC3
Видео: 720х576 25fps 5874Kbps
Аудио: 48kHz 6ch 384Kbps
"MediaInfo"
Формат : MPEG-PS
Размер файла : 1024 Мбайт
Продолжительность : 22 м.
Режим общего битрейта : Переменный
Общий поток : 6385 Кбит/сек

Видео
Идентификатор : 224 (0xE0)
Формат : MPEG Video
Версия формата : Version 2
Профиль формата : Main@Main
Параметр BVOP формата : Да
Параметр матрицы формата : Выборочная
Продолжительность : 22 м.
Вид битрейта : Переменный
Битрейт : 5874 Кбит/сек
Максимальный битрейт : 9000 Кбит/сек
Ширина : 720 пикселей
Высота : 576 пикселей
Соотношение сторон : 16:9
Частота кадров : 25,000 кадров/сек
Стандарт вещания : PAL
Цветовое пространство : YUV
Субдискретизация насыщенности : 4:2:0
Битовая глубина : 8 бит
Тип развёртки : Прогрессивная
Порядок развёртки : Верхнее поле первое
Метод сжатия : С потерями
Бит/(Пиксели*Кадры) : 0.567
Размер потока : 942 Мбайт (92%)

Аудио
Идентификатор : 189 (0xBD)-128 (0x80)
Формат : AC-3
Формат/Информация : Audio Coding 3
Расширение режима : CM (complete main)
Режим смешивания : DVD-Video
Продолжительность : 22 м.
Вид битрейта : Постоянный
Битрейт : 384 Кбит/сек
Каналы : 6 каналов
Расположение каналов : Front: L C R, Side: L R, LFE
Частота : 48,0 КГц
Битовая глубина : 16 бит
Метод сжатия : С потерями
Размер потока : 61,6 Мбайт (6%)

Меню
Свернуть

"Скриншоты"
Изображение
Изображение
Изображение
Изображение
Изображение
Изображение
Свернуть
Не в сети
Профиль  
Начать новую темуОтветить на тему  [ 1 сообщение ] 
Вы не можете начинать темы
Вы не можете отвечать на сообщения
Вы не можете редактировать свои сообщения
Вы не можете удалять свои сообщения
cron