Правила форума

  • В этом разделе создание новых тем Запрещено.
  • Для создания новых тем пользуйтесь Корневым разделом DVD и HD фильмы.
Начать новую темуОтветить на тему  [ Сообщений: 7 ] 
Торрент файл
Размер: 4.36 GB • Зарегистрирован: 4 года • Статус: Проверено
Скачан: 156 раз • Желающих скачать: 0 • Поблагодарили: 53 раза
 Раздают: 0  |  0 KB/s  ]   Качают: 0  |  0 KB/s  ] 
 Полного источника не было 1 год 1 месяц 
Сообщения
 Добавлено: 2012-11-20 08:12
DVD Release Group
Аватара пользователя
Стаж: 7 лет 1 месяц
Сообщений: 3548
Спасибок: 247042
Лайков: 1018
Патруль

End of Watch

«Где правит адреналин, нет места для страха»


Изображение


Год выпуска: 2012
Страна: США
Жанр: Триллер, драма, криминал
Продолжительность: 01:44:09
Перевод: Профессиональный (полное дублирование)
Субтитры: Русские
Режиссер: Дэвид Эйер / David Ayer
В ролях: Джейк Джилленхол, Майкл Пенья, Анна Кендрик, Натали Мартинез, Америка Феррера, Фрэнк Грилло, Дэвид Харбор, Кле Шахид Слоун, Джейм Фицсаймонс, Коуди Хорн
Описание: Они были лучшими копами Лос-Анджелеса. Бесстрашные и везучие напарники, они стали друг другу как братья. Но однажды парни залезли в самое логово преступного мира города, по-глупому подставились и сами стали мишенью… Кто успеет первым разрядить обойму?
Кинопоиск: 7.7 (6479)
IMDb: 8.0 (14225)
Дополнительно:
Исходник: DVD9 (6.9Гб) [лицензия, PAL 16:9].
Убрано: На съёмочной площадке, Смотрите на DVD, Russian (Dolby AC3, 2 ch), заставки и предупреждение.
Сжатие фильма 23% сжатия (без учета ручного перераспределения битрейта, за счет большего сжатия конечных титров).
Работоспособность проверена на софтовом плеере Windows Media и бытовом LG.
Sample:
http://multi-up.com/792428
Качество: DVD5 (сжатый)
Формат: DVD Video
Видео кодек: MPEG2
Аудио кодек: AC3
Видео: 720х576 25fps 5131Kbps
Аудио:
Аудио Rus: 48kHz 6ch 384Kbps
Аудио Eng: 48kHz 6ch 384Kbps
"MediaInfo"
Формат : MPEG-PS
Размер файла : 1024 Мбайт
Продолжительность : 23 м.
Режим общего битрейта : Переменный
Общий поток : 6019 Кбит/сек

Видео
Идентификатор : 224 (0xE0)
Формат : MPEG Video
Версия формата : Version 2
Профиль формата : Main@Main
Параметр BVOP формата : Да
Параметр матрицы формата : Выборочная
Продолжительность : 23 м.
Вид битрейта : Переменный
Битрейт : 5131 Кбит/сек
Ширина : 720 пикселей
Высота : 576 пикселей
Соотношение сторон : 2,35:1
Частота кадров : 25,000 кадров/сек
Стандарт вещания : PAL
Цветовое пространство : YUV
Субдискретизация насыщенности : 4:2:0
Битовая глубина : 8 бит
Метод сжатия : С потерями
Бит/(Пиксели*Кадры) : 0.495
Размер потока : 873 Мбайт (85%)
Основные цвета : BT.470-2 System B, BT.470-2 System G
Характеристики трансфера : BT.470-2 System B, BT.470-2 System G
Коэффициенты матрицы : BT.470-2 System B, BT.470-2 System G

Аудио #1
Идентификатор : 189 (0xBD)-128 (0x80)
Формат : AC-3
Формат/Информация : Audio Coding 3
Расширение режима : CM (complete main)
Режим смешивания : DVD-Video
Продолжительность : 23 м.
Вид битрейта : Постоянный
Битрейт : 384 Кбит/сек
Каналы : 6 каналов
Расположение каналов : Front: L C R, Side: L R, LFE
Частота : 48,0 КГц
Битовая глубина : 16 бит
Метод сжатия : С потерями
Размер потока : 65,3 Мбайт (6%)

Аудио #2
Идентификатор : 189 (0xBD)-130 (0x82)
Формат : AC-3
Формат/Информация : Audio Coding 3
Расширение режима : CM (complete main)
Режим смешивания : DVD-Video
Продолжительность : 23 м.
Вид битрейта : Постоянный
Битрейт : 384 Кбит/сек
Каналы : 6 каналов
Расположение каналов : Front: L C R, Side: L R, LFE
Частота : 48,0 КГц
Битовая глубина : 16 бит
Метод сжатия : С потерями
Размер потока : 65,3 Мбайт (6%)

Меню
Свернуть

"Скриншоты"
Изображение
Изображение
Изображение
Изображение
Изображение
Изображение
Изображение
Изображение
Свернуть

Раздача группы:
Изображение
Не в сети
Профиль  
 Добавлено: 2012-11-20 09:34 (спустя 1 час 21 минута)
Аватара пользователя
Стаж: 7 лет 9 месяцев
Сообщений: 187
Лайков: 9
Фильм отличный, очень похож на реальность, кроме последних сцен перестрелки) Советую скачать!
Не в сети
Профиль  
 Добавлено: 2012-11-20 14:02 (спустя 4 часа)
Модератор релиз-группы
Аватара пользователя
Стаж: 6 лет 5 месяцев
Возраст: 25
Сообщений: 622
Спасибок: 10257
Лайков: 7
viewtopic.php?f=1746&t=488492
_________________
Изображение
Не в сети
Профиль  
 Добавлено: 2012-11-20 14:20 (спустя 17 минут)
DVD Release Group
Аватара пользователя
Стаж: 7 лет 1 месяц
Сообщений: 3548
Спасибок: 247042
Лайков: 1018

Slovetskii:

http://nnportal.org/portal/viewtopic.php?f=1746&t=488492
И что?
Не в сети
Профиль  
 Добавлено: 2013-01-02 15:02 (спустя 1 месяц 12 дней)
Стаж: 5 лет 10 месяцев
Сообщений: 15
Хороший фильм,впечатлило! Автору спасибо!!!
Не в сети
Профиль  
 Добавлено: 2013-01-04 19:03 (спустя 2 дня 4 часа)
Аватара пользователя
Стаж: 6 лет 11 месяцев
Сообщений: 167
мне тоже понравился
Не в сети
Профиль  
 Добавлено: 2014-07-23 15:32 (спустя 1 год 6 месяцев)
Аватара пользователя
Стаж: 6 лет 11 месяцев
Сообщений: 13
Фильм очень понравился, спасибо!
Не в сети
Профиль  
Начать новую темуОтветить на тему  [ Сообщений: 7 ] 
Вы не можете начинать темы
Вы не можете отвечать на сообщения
Вы не можете редактировать свои сообщения
Вы не можете удалять свои сообщения