Правила форума

  • В этом разделе создание новых тем Запрещено.
  • Для создания новых тем пользуйтесь Корневым разделом DVD и HD фильмы.
Начать новую темуОтветить на тему  [ Сообщений: 8 ] 
Торрент файл
Размер: 4.36 GB • Зарегистрирован: 5 лет • Статус: Проверено
Скачан: 168 раз • Желающих скачать: 0 • Поблагодарили: 34 раза
 Раздают: 0  |  0 KB/s  ]   Качают: 0  |  0 KB/s  ] 
 Полного источника не было 3 года 2 месяца 
Сообщения
 Добавлено: 2011-11-29 00:35
Руководитель релиз-группы
Аватара пользователя
Стаж: 7 лет 4 месяца
Возраст: 31
Сообщений: 3407
Спасибок: 46728
Лайков: 5
Изображение

Пеликан
Nicostratos le pélican


Год выпуска: 2011
Страна: Франция, Греция
Слоган: «Удивительная история дружбы»
Жанр: драма, комедия
Продолжительность: 01:28:26
Перевод: Профессиональный (полное дублирование)
Режиссер: Оливье Орле
Сценарий: Эрик Буассе, Оливье Орле
Продюсер: Alain Grandgerard, Джереми Бурдек, Серж Де Пакс
Оператор: Мишель Аматье
Композитор: Panayotis Kalantzopoulos
В ролях: Эмир Кустурица, Тибо Ле Геллек, Джейд-Роуз Паркер, Франсуа-Ксавье Демезон, Геннадиос Пацис, Нтинос Понтикопоулос, Димитрис Сарикизоуглоу, Сократис Пацикас
Описание: После смерти жены мужчина отказывается выходить на улицу и не хочет общаться с единственным сыном. Жизнь теряет смысл, перестает для него существовать. Однажды мальчик находит птенца пеликана, которого решает оставить у себя. Он выкармливает птицу, и между ними завязываются теплые дружеские отношения. Пеликан помогает мальчику вновь обрести своего отца и возродить его к жизни.
Изображение
Релиз: Изображение Раздача группы: Изображение
Качество: DVD5 (сжатый)
Формат: DVD Video
Видео: MPEG2; PAL 16:9 (720x576)
Аудио: Dolby AC3, 6 ch, 384 Kbps Russian
Субтитры: русские, украинские
Дополнительная информация :
Исходник : DVD9 (6.1 Гб) [лицензия, PAL 16:9]
Убрано : допы, реклама, заставки, предупреждения, Francais (Dolby AC3, 6 ch)
Сжатие фильма : 25 % сжатия (без учета ручного перераспределения битрейта, за счет большего сжатия конечных титров)
использовались программы
    DVDRemakePro
    Photoshop
    MuxMan
    Rebuilder и CCE (Cinema Craft Encoder), 5 проходов
    Работоспособность проверена на софтовом плеере Windows Media и бытовом LG
Свернуть
DVDInfo
    Title: Pelikan_2011_DVD5.[R.G.Daredevil]
    Size: 4.36 Gb ( 4 575 854,00 KBytes ) - DVD-5
    Enabled regions: 1, 2, 3, 4, 5, 6, 7, 8

    VTS_01 :
    Play Length: 00:00:00
    Video: PAL 4:3 (720x576) VBR

    VTS_02 :
    Play Length: 00:00:00
    Video: PAL 16:9 (720x576) VBR, Auto Letterboxed
    Audio:
    Russian (Dolby AC3, 6 ch)
    Russian (Dolby AC3, 6 ch)
    Subtitles:
    Not specified
    Not specified

    VTS_03 :
    Play Length: 01:28:26
    Video: PAL 16:9 (720x576) VBR, Auto Pan&Scan, Auto Letterboxed
    Audio:
    Russian (Dolby AC3, 6 ch)
    Subtitles:
    Russian
    Ukrainian

    * Menus Information *

    VIDEO_TS Menu
    Video:
    NTSC 4:3 (720x480) VBR
    Auto Pan&Scan, Auto Letterboxed
    English Language Unit :
    Title Menu

    VTS_01 Menu
    Video:
    PAL 16:9 (720x576) VBR
    Auto Letterboxed
    Audio:
    Not specified (Dolby AC3, 2 ch)
    English Language Unit :
    Root Menu

    VTS_02 Menu
    Video:
    PAL 4:3 (720x576) VBR
    English Language Unit :
    Root Menu

    VTS_03 Menu
    Video:
    PAL 4:3 (720x576) VBR
    English Language Unit :
    Root Menu
Свернуть
mediainfo
    Формат : MPEG-PS
    Размер файла : 1024 Мбайт
    Продолжительность : 20 м.
    Режим общего битрейта : Переменный
    Общий поток : 7033 Кбит/сек

    Видео
    Идентификатор : 224 (0xE0)
    Формат : MPEG Video
    Версия формата : Version 2
    Профиль формата : Main@Main
    Параметр BVOP формата : Да
    Параметр матрицы формата : Выборочная
    Продолжительность : 20 м.
    Вид битрейта : Переменный
    Битрейт : 6509 Кбит/сек
    Максимальный битрейт : 9000 Кбит/сек
    Ширина : 720 пикселей
    Высота : 576 пикселей
    Соотношение сторон : 16:9
    Частота кадров : 25,000 кадров/сек
    Стандарт вещания : PAL
    Цветовое пространство : YUV
    Субдискретизация насыщенности : 4:2:0
    Битовая глубина : 8 бит
    Тип развёртки : Чересстрочная
    Порядок развёртки : Верхнее поле первое
    Метод сжатия : С потерями
    Бит/(Пиксели*Кадры) : 0.628
    Размер потока : 948 Мбайт (93%)

    Аудио
    Идентификатор : 189 (0xBD)-128 (0x80)
    Формат : AC-3
    Формат/Информация : Audio Coding 3
    Расширение режима : CM (complete main)
    Режим смешивания : DVD-Video
    Продолжительность : 20 м.
    Вид битрейта : Постоянный
    Битрейт : 384 Кбит/сек
    Каналы : 6 каналов
    Расположение каналов : Front: L C R, Side: L R, LFE
    Частота : 48,0 КГц
    Битовая глубина : 16 бит
    Метод сжатия : С потерями
    Размер потока : 55,9 Мбайт (5%)

    Текст #1
    Идентификатор : 189 (0xBD)-32 (0x20)
    Формат : RLE
    Формат/Информация : Run-length encoding
    Режим смешивания : DVD-Video

    Текст #2
    Идентификатор : 189 (0xBD)-33 (0x21)
    Формат : RLE
    Формат/Информация : Run-length encoding
    Режим смешивания : DVD-Video

    Меню
Свернуть
Скриншоты

меню
Изображение
Изображение
Изображение
Свернуть
Изображение
Изображение
Изображение
Изображение
Изображение
Свернуть


Последний раз редактировалось askboy 2012-03-31 06:36, всего редактировалось 1 раз.
Не в сети
Профиль  
 Добавлено: 2011-11-29 15:18 (спустя 14 часов)
Кинокомментатор
Аватара пользователя
Стаж: 9 лет
Сообщений: 1331
Лайков: 52
В ролях: Эмир Кустурица
ну ка нука)))
_________________
Я ВКонтакте
Не в сети
Профиль  
 Добавлено: 2011-12-01 16:56 (спустя 2 дня 1 час)
Аватара пользователя
Стаж: 7 лет 8 месяцев
Сообщений: 48
Фильм зачетный,давно ждал его,автору спасибо.
Не в сети
Профиль  
 Добавлено: 2011-12-12 19:08 (спустя 11 дней)
Аватара пользователя
Стаж: 5 лет 11 месяцев
Возраст: 30
Сообщений: 19
Спасибок: 64
Спасибо!
_________________
Изображение
Не в сети
Профиль  
 Добавлено: 2011-12-12 19:15 (спустя 6 минут)
Руководитель релиз-группы
Аватара пользователя
Стаж: 7 лет 4 месяца
Возраст: 31
Сообщений: 3407
Спасибок: 46728
Лайков: 5
vala59
s.c.o.r.p.
Всегда пожалуйста :)
Не в сети
Профиль  
 Добавлено: 2012-03-20 23:38 (спустя 3 месяца 8 дней)
Аватара пользователя
Стаж: 5 лет
Возраст: 27
Сообщений: 205
Лайков: 2
ФИЛЬМ ОЧЕНЬ ХОРОШ СОВЕТУЮ ВСЕМ!!!
Не в сети
Профиль  
 Добавлено: 2012-03-27 18:27 (спустя 6 дней)
Аватара пользователя
Стаж: 8 лет
Сообщений: 4
:-ok-: очень понравился фильм, спасибо
Не в сети
Профиль  
 Добавлено: 2012-03-30 19:58 (спустя 3 дня)
Стаж: 5 лет 3 месяца
Сообщений: 150
Лайков: 1
Мне тоже понравился! :a_g_a:
Не в сети
Профиль  
Начать новую темуОтветить на тему  [ Сообщений: 8 ] 
Вы не можете начинать темы
Вы не можете отвечать на сообщения
Вы не можете редактировать свои сообщения
Вы не можете удалять свои сообщения