Правила форума

  • В этом разделе создание новых тем Запрещено.
  • Для создания новых тем пользуйтесь Корневым разделом DVD и HD фильмы.
Начать новую темуОтветить на тему  [ Сообщений: 8 ] 
Торрент файл
Размер: 4.37 GB • Зарегистрирован: 4 года • Статус: Проверено
Скачан: 144 раза • Желающих скачать: 0 • Поблагодарили: 51 раз
 Раздают: 0  |  0 KB/s  ]   Качают: 0  |  0 KB/s  ] 
 Полного источника не было 2 года 9 месяцев 
Сообщения
 Добавлено: 2012-11-29 14:10
DVD Release Group
Аватара пользователя
Стаж: 7 лет 1 месяц
Сообщений: 3543
Спасибок: 246751
Лайков: 1016
Петля времени

Looper

«В плену будущего. В плену прошлого»


Изображение


Год выпуска: 2012
Страна: США, Китай
Жанр: Фантастика, боевик, триллер
Продолжительность: 01:53:46
Перевод: Профессиональный (полное дублирование)
Субтитры: Нет
Режиссер: Райан Джонсон
В ролях: Брюс Уиллис, Джозеф Гордон-Левитт, Эмили Блант, Пайпер Перабо, Пол Дано, Гаррет Диллахант, Джефф Дэниелс, Трейси Томс, Пирс Гэнон, Ан Нуу Нгуйен
Описание: В недалеком будущем, где стали возможны путешествия во времени, некая корпорация убирает нежелательных людей, отправляя их в прошлое в пластиковых пакетах. Задача принимающей стороны — всадить жертве пулю в голову, стерев тем самым несчастного из истории. Все идет гладко до тех пор, пока главный герой не распаковывает очередной пакет, обнаруживая в нем… самого себя из будущего.
Кинопоиск: 7.3 (25433)
IMDb: 7.9 (85415)
Дополнительно:
Исходник: DVD9.
Убрано: заставки и предупреждение.
Сжатие фильма 17,8% сжатия (без учета ручного перераспределения битрейта, за счет большего сжатия конечных титров).
Работоспособность проверена на софтовом плеере Windows Media и бытовом LG.
Качество: DVD5 (сжатый)
Формат: DVD Video
Видео кодек: MPEG2
Аудио кодек: AC3
Видео: 720х576 25fps 4403Kbps
Аудио: 48kHz 6ch 448Kbps
"MediaInfo"
Формат : MPEG-PS
Размер файла : 1024 Мбайт
Продолжительность : 28 м.
Режим общего битрейта : Переменный
Общий поток : 4949 Кбит/сек

Видео
Идентификатор : 224 (0xE0)
Формат : MPEG Video
Версия формата : Version 2
Профиль формата : Main@Main
Параметр BVOP формата : Да
Параметр матрицы формата : Выборочная
Продолжительность : 28 м.
Вид битрейта : Переменный
Битрейт : 4403 Кбит/сек
Максимальный битрейт : 9000 Кбит/сек
Ширина : 720 пикселей
Высота : 576 пикселей
Соотношение сторон : 16:9
Частота кадров : 25,000 кадров/сек
Стандарт вещания : PAL
Цветовое пространство : YUV
Субдискретизация насыщенности : 4:2:0
Битовая глубина : 8 бит
Тип развёртки : Чересстрочная
Порядок развёртки : Верхнее поле первое
Метод сжатия : С потерями
Бит/(Пиксели*Кадры) : 0.425
Размер потока : 911 Мбайт (89%)

Аудио
Идентификатор : 189 (0xBD)-128 (0x80)
Формат : AC-3
Формат/Информация : Audio Coding 3
Расширение режима : CM (complete main)
Режим смешивания : DVD-Video
Продолжительность : 28 м.
Вид битрейта : Постоянный
Битрейт : 448 Кбит/сек
Каналы : 6 каналов
Расположение каналов : Front: L C R, Side: L R, LFE
Частота : 48,0 КГц
Битовая глубина : 16 бит
Метод сжатия : С потерями
Размер потока : 92,7 Мбайт (9%)

Меню
Свернуть

"Скриншоты"
Изображение
Изображение
Изображение
Изображение
Изображение
Изображение
Свернуть

Раздача группы:
Изображение
Не в сети
Профиль  
 Добавлено: 2012-11-29 20:12 (спустя 6 часов)
Модератор релиз-группы
Аватара пользователя
Стаж: 6 лет 5 месяцев
Возраст: 25
Сообщений: 622
Спасибок: 10257
Лайков: 7
Помогу :)
_________________
Изображение
Не в сети
Профиль  
 Добавлено: 2012-11-29 20:14 (спустя 2 минуты)
DVD Release Group
Аватара пользователя
Стаж: 7 лет 1 месяц
Сообщений: 3543
Спасибок: 246751
Лайков: 1016
Slovetskii
Спасибо.Изображение
Не в сети
Профиль  
 Добавлено: 2012-12-06 20:47 (спустя 7 дней)
Аватара пользователя
Стаж: 8 лет 3 месяца
Возраст: 33
Сообщений: 319
Спасибок: 602
Лайков: 34
Не подскажите рипа не будет на 720 или 1080?
Не в сети
Профиль  
 Добавлено: 2012-12-06 21:15 (спустя 27 минут)
DVD Release Group
Аватара пользователя
Стаж: 7 лет 1 месяц
Сообщений: 3543
Спасибок: 246751
Лайков: 1016
dVision
Blu-Ray через недельку.
Не в сети
Профиль  
 Добавлено: 2012-12-06 21:42 (спустя 26 минут)
Аватара пользователя
Стаж: 8 лет 3 месяца
Возраст: 33
Сообщений: 319
Спасибок: 602
Лайков: 34
Спасибо за инфу :cool_cool:
Не в сети
Профиль  
 Добавлено: 2012-12-08 21:08 (спустя 1 день 23 часа)
Стаж: 7 лет 2 месяца
Сообщений: 81
Вот почему в конце фильма,там где он стоит в поле,он не отстрелил себе руки?:
Не в сети
Профиль  
 Добавлено: 2012-12-12 22:10 (спустя 4 дня)
Стаж: 5 лет 10 месяцев
Сообщений: 15
Toliknub подскажи,каким образом можно отстрелить себе две руки? :-D Фильм неплохой,автору спасибо!
Не в сети
Профиль  
Начать новую темуОтветить на тему  [ Сообщений: 8 ] 
Вы не можете начинать темы
Вы не можете отвечать на сообщения
Вы не можете редактировать свои сообщения
Вы не можете удалять свои сообщения