Правила форума

  • В этом разделе создание новых тем Запрещено.
  • Для создания новых тем пользуйтесь Корневым разделом DVD и HD фильмы.
Начать новую темуОтветить на тему  [ Сообщений: 2 ] 
Торрент файл
Размер: 4.36 GB • Зарегистрирован: 2 года 5 месяцев • Статус: Проверено
Скачан: 54 раза • Желающих скачать: 0 • Поблагодарили: 17 раз
 Раздают: 0  |  0 KB/s  ]   Качают: 0  |  0 KB/s  ] 
 Полного источника не было 2 часа 31 минута 
Сообщения
 Добавлено: 2014-06-15 09:20
DVD Release Group
Аватара пользователя
Стаж: 7 лет 1 месяц
Сообщений: 3559
Спасибок: 247267
Лайков: 1018
План побега

Escape Plan


Изображение


Год выпуска: 2013
Страна: США
Жанр: Боевик, триллер, детектив
Продолжительность: 01:50:52
Перевод: Профессиональный (полное дублирование)
Cубтитры: Нет
Режиссер: Микаэль Хофстрём
В ролях: Сильвестр Сталлоне, Арнольд Шварценеггер, Джеймс Кэвизел, Фифти Сент, Винни Джонс, Винсент Д’Онофрио, Эми Райан, Фаран Таир, Сэм Нил, Мэтт Джералд
Описание: Один из самых выдающихся мировых специалистов по системам безопасности соглашается на последнюю рисковую операцию: сбежать из суперсекретной высокотехнологичной тюрьмы, которую называют «Гробницей». Преданный Рэй Бреслин вынужден прибегнуть к помощи напарника — заключенного Эмиля Ротмайера, чтобы разработать отчаянный и практически неосуществимый план побега из самой защищенной тюрьмы в мире!
Изображение
Дополнительно:
Исходник: DVD9 (5.49Гб) [лицензия, PAL 16:9].
Убрано: заставки и предупреждение.
Сжатие фильма 22% сжатия (без учета ручного перераспределения битрейта, за счет большего сжатия конечных титров).
Работоспособность проверена на софтовом плеере Windows Media и бытовом LG.
Качество: DVD5 (сжатый)
Формат: DVD Video
Видео кодек: MPEG2
Аудио кодек: AC3
Видео: 720х576 25fps 5155Kbps
Аудио: 48kHz 6ch 448Kbps
"MediaInfo"
Формат : MPEG-PS
Размер файла : 1024 Мбайт
Продолжительность : 25 м.
Режим общего битрейта : Переменный
Общий поток : 5717 Кбит/сек

Видео
Идентификатор : 224 (0xE0)
Формат : MPEG Video
Версия формата : Version 2
Профиль формата : Main@Main
Параметр BVOP формата : Да
Параметр матрицы формата : Выборочная
Параметр GOP формата : Variable
Продолжительность : 25 м.
Вид битрейта : Переменный
Битрейт : 5155 Кбит/сек
Максимальный битрейт : 9000 Кбит/сек
Ширина : 720 пикселей
Высота : 576 пикселей
Соотношение сторон : 16:9
Частота кадров : 25,000 кадров/сек
Стандарт вещания : PAL
Цветовое пространство : YUV
Субдискретизация насыщенности : 4:2:0
Битовая глубина : 8 бит
Тип развёртки : Прогрессивная
Порядок развёртки : Нижнее поле первое
Метод сжатия : С потерями
Бит/(Пиксели*Кадры) : 0.497
Временной код первого кадра : 00:00:00:00
Оригинал временного кода : Group of pictures header
Размер потока : 923 Мбайт (90%)

Аудио
Идентификатор : 189 (0xBD)-128 (0x80)
Формат : AC-3
Формат/Информация : Audio Coding 3
Расширение режима : CM (complete main)
Параметр Endianness формата : Big
Режим смешивания : DVD-Video
Продолжительность : 25 м.
Вид битрейта : Постоянный
Битрейт : 448 Кбит/сек
Каналы : 6 каналов
Расположение каналов : Front: L C R, Side: L R, LFE
Частота : 48,0 КГц
Битовая глубина : 16 бит
Метод сжатия : С потерями
Размер потока : 80,2 Мбайт (8%)

Меню
Свернуть

"Скриншоты"
Изображение
Изображение
Изображение
Изображение
Изображение
Изображение
Изображение
Изображение
Свернуть
 slant1 нравится это.
В сети
Профиль  
 Добавлено: 2014-06-15 17:45 (спустя 8 часов)
DVD Release Group
Аватара пользователя
Стаж: 7 лет 9 месяцев
Сообщений: 364
Спасибок: 3086
Лайков: 10
Наконец - таки сподобились лицензию выпустить, классный фильм. Спасибо. :ya_hoo_oo:
Не в сети
Профиль  
Начать новую темуОтветить на тему  [ Сообщений: 2 ] 
Вы не можете начинать темы
Вы не можете отвечать на сообщения
Вы не можете редактировать свои сообщения
Вы не можете удалять свои сообщения