Правила форума

  • В этом разделе создание новых тем Запрещено.
  • Для создания новых тем пользуйтесь Корневым разделом DVD и HD фильмы.
Начать новую темуОтветить на тему  [ 1 сообщение ] 
Торрент файл
Размер: 3.7 GB • Зарегистрирован: 4 года 6 месяцев • Статус: Проверено
Скачан: 68 раз • Желающих скачать: 0 • Поблагодарили: 13 раз
 Раздают: 0  |  0 KB/s  ]   Качают: 0  |  0 KB/s  ] 
 Полного источника не было 1 год 9 месяцев 
Сообщения
 Добавлено: 2012-05-11 22:31
Аватара пользователя
Стаж: 5 лет 6 месяцев
Возраст: 30
Сообщений: 353
Спасибок: 7455
Под прицелом / Pressed

Изображение


Год выпуска: 2011
Страна: Канада (QubeFilm)
Жанр: триллер, криминал
Продолжительность: 01:40:46
Перевод: Профессиональный (многоголосый закадровый)
Субтитры: Нет

Режиссёр: Джастин Доннелли / Justin Donnelly
Сценарист: Джастин Доннелли, Кристофер Дональдсон
Продюсер: Джастин Доннелли, Райан Доннелли, Крис Ипполито
Оператор: Норм Ли
Композитор: Питер Аллен
В ролях: Люк Госс, Тайлер Джонстон, Майкл Эклунд, Джеффри Баллард, Крэйг Станьетта, Эндрю Хедж, Мишель Брезински, Р. Камерон Гордон, Эрика Кэрролл, Этан Сойер

Описание: Парочка угонщиков машин, Джэсси и Сэм обнаруживают кое-что на заднем сидении автомобиля, что может круто изменить их жизнь. Брайан, не знакомый Джэсси и Сэму, заключает коммерческую сделку, которая поможет ему снова забраться на вершину одной из крупнейших инвестиционных фирм.
Доп.информация: нет
Бюджет: CAD 3 200 000

Изображение Изображение Изображение

Качество: DVD5 R5
Формат: DVD Video
Видео кодек: MPEG2
Аудио кодек: AC3 (Dolby Digital)
Видео: PAL 16:9 (720x576(0.434)) MPEG Video, 25,000 кадр/сек, 4496 Кбит/сек
Аудио #1: Russian (Dolby AC3, 6 ch) 384 Кбит/сек, 48,0 КГц [Профессиональный (многоголосый закадровый)]
Субтитры: Нет

"DVDInfo"
Title:
Size: 3.70 Gb ( 3 875 084 KBytes ) - DVD-5
Enabled regions: 1, 2, 3, 4, 5, 6, 7, 8

VTS_01 :
Play Length: 00:00:10
Video: PAL 4:3 (720x576) VBR
Audio:
Russian (Dolby AC3, 2 ch)

VTS_02 :
Play Length: 01:40:46
Video: PAL 16:9 (720x576) VBR, Auto Letterboxed
Audio:
Russian (Dolby AC3, 6 ch)

Menu Video:
PAL 4:3 (720x576) VBR
Menu Subtitles:
Not specified
Menu English Language Unit :
Root Menu
Свернуть

"MediaInfo"
Общее
Полное имя : J:\Новинки 2012\Pod.pricelom.2011.DVD5\VIDEO_TS\VTS_02_2.VOB
Формат : MPEG-PS
Размер файла : 1024 Мбайт
Продолжительность : 28 м.
Режим общего битрейта : Переменный
Общий поток : 5044 Кбит/сек

Видео
Идентификатор : 224 (0xE0)
Формат : MPEG Video
Версия формата : Version 2
Профиль формата : Main@Main
Параметр BVOP формата : Да
Параметр матрицы формата : Выборочная
Параметр GOP формата : M=3, N=15
Продолжительность : 28 м.
Вид битрейта : Переменный
Битрейт : 4496 Кбит/сек
Максимальный битрейт : 9000 Кбит/сек
Ширина : 720 пикселей
Высота : 576 пикселей
Соотношение сторон : 16:9
Частота кадров : 25,000 кадров/сек
Стандарт вещания : PAL
Цветовое пространство : YUV
Субдискретизация насыщенности : 4:2:0
Битовая глубина : 8 бит
Тип развёртки : Чересстрочная
Порядок развёртки : Верхнее поле первое
Метод сжатия : С потерями
Бит/(Пиксели*Кадры) : 0.434
Размер потока : 913 Мбайт (89%)

Аудио
Идентификатор : 189 (0xBD)-128 (0x80)
Формат : AC-3
Формат/Информация : Audio Coding 3
Расширение режима : CM (complete main)
Параметр Endianness формата : Big
Режим смешивания : DVD-Video
Продолжительность : 28 м.
Вид битрейта : Постоянный
Битрейт : 448 Кбит/сек
Каналы : 6 каналов
Расположение каналов : Front: L C R, Side: L R, LFE
Частота : 48,0 КГц
Битовая глубина : 16 бит
Метод сжатия : С потерями
Задержка видео : -408 мс.
Размер потока : 90,9 Мбайт (9%)

Свернуть

Скриншоты
Скриншоты меню
Изображение
Изображение
Свернуть
Изображение
Изображение
Изображение
Изображение
Изображение
Изображение
Изображение
Изображение
Изображение
Изображение
Свернуть


ИзображениеИзображение
Не в сети
Профиль  
Начать новую темуОтветить на тему  [ 1 сообщение ] 
Вы не можете начинать темы
Вы не можете отвечать на сообщения
Вы не можете редактировать свои сообщения
Вы не можете удалять свои сообщения