Правила форума

  • В этом разделе создание новых тем Запрещено.
  • Для создания новых тем пользуйтесь Корневым разделом DVD и HD фильмы.
Начать новую темуОтветить на тему  [ Сообщений: 3 ] 
Торрент файл
Размер: 3.91 GB • Зарегистрирован: 5 лет 1 месяц • Статус: Проверено
Скачан: 69 раз • Желающих скачать: 0 • Поблагодарили: 14 раз
 Раздают: 0  |  0 KB/s  ]   Качают: 0  |  0 KB/s  ] 
 Полного источника не было 3 года 2 месяца 
Сообщения
 Добавлено: 2011-10-22 22:10
Книголюб
Аватара пользователя
Стаж: 7 лет 2 месяца
Сообщений: 2823
Спасибок: 48826
Лайков: 73
Поезд дальше не идет
Stag Night
Изображение


Год выпуска: 2008
Страна: США
Слоган: «Stay on the train...»
Жанр: Триллер, Ужасы
Продолжительность: 01:20:24
Перевод: Профессиональный (многоголосый закадровый)

Режиссёр: Питер Э. Даулинг
В ролях: Карл Джиари, Винесса Шоу, Николай Сотиров, Люка Берковичи, Брекин Мейер, Скотт Эдкинс, Кип Парду, Итай Дьяков
Описание: Планируя добраться до другого бара и продолжить прерванное празднование мальчишника, четверо парней успевают запрыгнуть в последний ночной поезд метро и встречают в нём двух девушек. Во время знакомства происходит неприятный инцидент, после чего вся компания оказывается на станции, заброшенной в далёких 70-х. Начав исследовать туннели в поисках выхода, молодые люди становятся свидетелями жестокого убийства полицейского группой бездомных людей, которые начинают на них охоту.
Рейтинг MPAA: Рейтинг R (Подростки до 17 лет допускаются на фильм только в сопровождении одного из родителей)
Мировая премьера: 26 июня 2008
Премьера в России: 28 сентября 2010, «Lizard Cinema Trade»
Бюджет: $4 000 000
Изображение 4.991 621

Качество: DVD5
Формат: DVD Video
Видео кодек: MPEG2
Аудио кодек: AC3 (Dolby Digital)
Видео: PAL 16:9 (720x576(0.530)) ,25,000 кадр/сек, 5491 Кбит/сек, 0.530Bits/Pixel
Аудио #1: 48.0 KHz, 6 ch.,384 Kbps
MeediaInfo
General
Complete name : I:\1.08\Новая папка\Stag Night

2008.DVD-5\VIDEO_TS\VTS_02_1.VOB
Format : MPEG-PS
File size : 1 024 MiB
Duration : 22mn 25s
Overall bit rate : 6 385 Kbps

Video
ID : 224 (0xE0)
Format : MPEG Video
Format version : Version 2
Format profile : Main@Main
Format settings, BVOP : Yes
Format settings, Matrix : Default
Format settings, GOP : M=3, N=12
Duration : 22mn 25s
Bit rate mode : Variable
Bit rate : 5 490 Kbps
Nominal bit rate : 8 000 Kbps
Width : 720 pixels
Height : 576 pixels
Display aspect ratio : 16:9
Frame rate : 25.000 fps
Standard : PAL
Color space : YUV
Chroma subsampling : 4:2:0
Bit depth : 8 bits
Scan type : Interlaced
Scan order : Top Field First
Compression mode : Lossy
Bits/(Pixel*Frame) : 0.530
Stream size : 880 MiB (86%)

Audio #1
ID : 189 (0xBD)-128 (0x80)
Format : AC-3
Format/Info : Audio Coding 3
Mode extension : CM (complete main)
Muxing mode : DVD-Video
Duration : 22mn 24s
Bit rate mode : Constant
Bit rate : 384 Kbps
Channel(s) : 6 channels
Channel positions : Front: L C R, Side: L R, LFE
Sampling rate : 48.0 KHz
Bit depth : 16 bits
Compression mode : Lossy
Stream size : 61.6 MiB (6%)

Audio #2
ID : 189 (0xBD)-129 (0x81)
Format : AC-3
Format/Info : Audio Coding 3
Mode extension : CM (complete main)
Muxing mode : DVD-Video
Duration : 22mn 24s
Bit rate mode : Constant
Bit rate : 192 Kbps
Channel(s) : 2 channels
Channel positions : Front: L R
Sampling rate : 48.0 KHz
Bit depth : 16 bits
Compression mode : Lossy
Stream size : 30.8 MiB (3%)

Audio #3
ID : 189 (0xBD)-130 (0x82)
Format : AC-3
Format/Info : Audio Coding 3
Mode extension : CM (complete main)
Muxing mode : DVD-Video
Duration : 22mn 24s
Bit rate mode : Constant
Bit rate : 192 Kbps
Channel(s) : 2 channels
Channel positions : Front: L R
Sampling rate : 48.0 KHz
Bit depth : 16 bits
Compression mode : Lossy
Stream size : 30.8 MiB (3%)

Menu
Свернуть

Скриншоты
Изображение
Изображение
Изображение
Изображение

Свернуть


Последний раз редактировалось coldun 2011-10-23 12:53, всего редактировалось 2 раз(а).
Не в сети
Профиль  
 Добавлено: 2011-10-22 22:51 (спустя 41 минута)
Аватара пользователя
Стаж: 8 лет 3 месяца
Возраст: 43
Сообщений: 3290
Спасибок: 21012
Лайков: 3
coldun
Необходимы скриншоты оригинального разрешения видео.
[Инструкция] Как сделать скриншоты с видео
[Инструкция] Куда и как залить скриншоты
Исправьте пожалуйста
Как все исправите, то сообщите пожалуйста в ЛС мне или любому модератору видео. Обязательно со ссылкой на релиз :)
_________________
Изображение
Не в сети
Профиль  
 Добавлено: 2012-04-07 20:39 (спустя 5 месяцев 15 дней)
Аватара пользователя
Стаж: 6 лет 11 месяцев
Сообщений: 355
Спасибок: 1406
афигенный фильм, мне понравился
Не в сети
Профиль  
Начать новую темуОтветить на тему  [ Сообщений: 3 ] 
Вы не можете начинать темы
Вы не можете отвечать на сообщения
Вы не можете редактировать свои сообщения
Вы не можете удалять свои сообщения