Правила форума

  • В этом разделе создание новых тем Запрещено.
  • Для создания новых тем пользуйтесь Корневым разделом DVD и HD фильмы.
Начать новую темуОтветить на тему  [ Сообщений: 4 ] 
Торрент файл
Размер: 6.28 GB • Зарегистрирован: 4 года 11 месяцев • Статус: Проверено
Скачан: 159 раз • Желающих скачать: 0 • Поблагодарили: 23 раза
 Раздают: 0  |  0 KB/s  ]   Качают: 0  |  0 KB/s  ] 
 Полного источника не было 3 года 2 месяца 
Сообщения
 Добавлено: 2011-12-25 23:50
Аватара пользователя
Стаж: 5 лет 6 месяцев
Возраст: 30
Сообщений: 353
Спасибок: 7455
Погоня / Abduction

Изображение


Год выпуска: 2011
Страна: США (Gotham Group, The, Lionsgate, Quick Six Entertainment, Tailor Made, Vertigo Entertainment)
Слоган: «Сражаясь за правду, он борется за жизнь»
Жанр: боевик, триллер, драма, детектив
Продолжительность: 01:41:38
Перевод: Профессиональный (дубляж)
Дублеры: Илья Хвостиков, Анастасия Нестеренко, Василий Дахненко, Алексей Колган, Елена Соловьева + Оригинальная звуковая дорожка
Субтитры: Нет

Режиссёр: Джон Синглтон / John Singleton
Сценарист: Шоун Кристенсен
Продюсер: Даг Дэвисон, Эллен Голдсмит-Вейн, Дэн Лотнер
Оператор: Питер Мензиес мл.
Композитор: Эд Ширмёр

В ролях: Тэйлор Лотнер, Лили Коллинз, Джейсон Айзекс, Альфред Молина, Сигурни Уивер, Мария Белло, Антоник Смит, Микаэл Нюквист, Дэнзел Уитакер, Джейк Андолина...

Описание: Главный герой в один прекрасный день обнаруживает на сайте по розыску пропавших детей собственное фото. Отойдя от шока, он понимает, что родители похитили его и вырастили как собственного ребенка. Юноша начинает расследование, которое, в итоге, превращается в цепь жестоких и местами смертельно опасных событий.

Доп.информация: Смотрите на DVD
Рейтинг MPAA: Рейтинг PG-13 (Дети до 13 лет допускаются на фильм только с родителями)
Мировая премьера: 23 августа 2011
Премьера в России: 22 сентября 2011, «West»
Бюджет: $35 000 000
Кассовые сборы: + $54 000 000 = $82 087 155

Изображение Изображение Изображение


Качество: DVD9 R5
Формат: DVD Video
Видео кодек: MPEG2
Аудио кодек: AC3 (Dolby Digital)
Видео: PAL 16:9 (720x576(0.692)) MPEG Video, 25,000 кадр/сек, 7173 Кбит/сек
Аудио #1: Russian (Dolby AC3, 6 ch) 448 Кбит/сек, 48,0 КГц [Профессиональный (дубляж)]
Аудио #2: English (Dolby AC3, 6 ch) 448 Кбит/сек, 48,0 КГц [Оригинальная звуковая дорожка]
Субтитры: Нет

"DVDInfo"
Title:
Size: 6.28 Gb ( 6 588 298,00 KBytes ) - DVD-9
Enabled regions: 1, 2, 3, 4, 5, 6, 7, 8

VTS_01 :
Play Length: 00:00:12+00:00:10
Video: PAL 16:9 (720x576) VBR, Auto Letterboxed
Audio:
Russian (Dolby AC3, 2 ch)

VTS_02 :
Play Length: 01:41:38
Video: PAL 16:9 (720x576) VBR, Auto Letterboxed
Audio:
Russian (Dolby AC3, 6 ch)
English (Dolby AC3, 6 ch)

VTS_03 :
Play Length: 00:02:03+00:02:17+00:02:24
Video: PAL 16:9 (720x576) VBR, Auto Letterboxed
Audio:
Russian (Dolby AC3, 2 ch)
Свернуть

"MediaInfo"
Общее
Полное имя : G:\Новинки 2011\Pogonya.2011.DVD9\VIDEO_TS\VTS_02_3.VOB
Формат : MPEG-PS
Размер файла : 1000 Мбайт
Продолжительность : 16 м.
Общий поток : 8233 Кбит/сек

Видео
Идентификатор : 224 (0xE0)
Формат : MPEG Video
Версия формата : Version 2
Профиль формата : Main@Main
Параметр BVOP формата : Да
Параметр матрицы формата : Выборочная
Параметр GOP формата : M=3, N=15
Продолжительность : 16 м.
Битрейт : 7173 Кбит/сек
Максимальный битрейт : 7200 Кбит/сек
Ширина : 720 пикселей
Высота : 576 пикселей
Соотношение сторон : 16:9
Частота кадров : 25,000 кадров/сек
Стандарт вещания : PAL
Цветовое пространство : YUV
Субдискретизация насыщенности : 4:2:0
Битовая глубина : 8 бит
Тип развёртки : Чересстрочная
Порядок развёртки : Верхнее поле первое
Метод сжатия : С потерями
Бит/(Пиксели*Кадры) : 0.692
Размер потока : 871 Мбайт (87%)

Аудио #1
Идентификатор : 189 (0xBD)-128 (0x80)
Формат : AC-3
Формат/Информация : Audio Coding 3
Расширение режима : CM (complete main)
Режим смешивания : DVD-Video
Продолжительность : 16 м.
Вид битрейта : Постоянный
Битрейт : 448 Кбит/сек
Каналы : 6 каналов
Расположение каналов : Front: L C R, Side: L R, LFE
Частота : 48,0 КГц
Битовая глубина : 16 бит
Метод сжатия : С потерями
Задержка видео : -312 мс.
Размер потока : 54,4 Мбайт (5%)

Аудио #2
Идентификатор : 189 (0xBD)-129 (0x81)
Формат : AC-3
Формат/Информация : Audio Coding 3
Расширение режима : CM (complete main)
Режим смешивания : DVD-Video
Продолжительность : 16 м.
Вид битрейта : Постоянный
Битрейт : 448 Кбит/сек
Каналы : 6 каналов
Расположение каналов : Front: L C R, Side: L R, LFE
Частота : 48,0 КГц
Битовая глубина : 16 бит
Метод сжатия : С потерями
Задержка видео : -312 мс.
Размер потока : 54,4 Мбайт (5%)

Свернуть

Скриншоты
Скриншоты меню
Изображение
Изображение
Изображение
Свернуть
Изображение
Изображение
Изображение
Изображение
Изображение
Изображение
Изображение
Изображение
Свернуть


Изображение Изображение
Не в сети
Профиль  
 Добавлено: 2011-12-26 18:19 (спустя 18 часов)
Стаж: 5 лет 3 месяца
Сообщений: 150
Лайков: 2
Фильм конченый!!!!!!!!!!!!!!!!!!!!!!
Не в сети
Профиль  
 Добавлено: 2011-12-26 20:47 (спустя 2 часа 28 минут)
Аватара пользователя
Стаж: 7 лет 1 месяц
Сообщений: 60
т.е. Фуфло что ли????? :du_ma_et: :du_ma_et: :du_ma_et:
Не в сети
Профиль  
 Добавлено: 2011-12-28 14:27 (спустя 1 день 17 часов)
Стаж: 5 лет 3 месяца
Сообщений: 150
Лайков: 2
Ещё какое фуфло!!!
Не в сети
Профиль  
Начать новую темуОтветить на тему  [ Сообщений: 4 ] 
Вы не можете начинать темы
Вы не можете отвечать на сообщения
Вы не можете редактировать свои сообщения
Вы не можете удалять свои сообщения