Правила форума

  • В этом разделе создание новых тем Запрещено.
  • Для создания новых тем пользуйтесь Корневым разделом DVD и HD фильмы.
Начать новую темуОтветить на тему  [ Сообщений: 7 ] 
Торрент файл
Размер: 6.61 GB • Зарегистрирован: 5 лет 5 месяцев • Статус: Проверено
Скачан: 361 раз • Желающих скачать: 0 • Поблагодарили: 64 раза
 Раздают: 0  |  0 KB/s  ]   Качают: 0  |  0 KB/s  ] 
 Полного источника не было 8 месяцев 
Сообщения
 Добавлено: 2011-06-17 20:18
Аватара пользователя
Стаж: 5 лет 5 месяцев
Возраст: 30
Сообщений: 353
Спасибок: 7455
Пол: Секретный материальчик / Paul

Изображение


Год выпуска: 2011
Страна: США, Великобритания (Big Talk Productions, Пифагор, Relativity Media, Studio Canal, Working Title Films)
Слоган: «Кто готов к тесному контакту?»
Жанр: фантастика, комедия, приключения
Продолжительность: 01:39:27
Перевод: Оригинальная звуковая дорожка + Оригинальная звуковая дорожка + Профессиональный (дубляж)
Дублеры: Сергей Бурунов, Михаил Белякович, Владимир Герасимов, Инна Королёва, Михаил Георгиу
Субтитры: Английские, Итальянские, Румынские, Эстонские, Латвийские, Литовские, Украинские

Режиссёр: Грег Моттола / Greg Mottola
Сценарист: Ник Фрост, Саймон Пегг
Продюсер: Тим Беван, Эрик Феллнер, Нира Парк
Оператор: Ларри Шер
Композитор: Дэвид Арнольд

В ролях: Саймон Пегг, Ник Фрост, Сет Роген, Джейн Линч, Сигурни Уивер, Джейсон Бейтман, Кристен Уиг, Билл Хэйдер, Блайт Даннер, Джефри Тэмбор

Описание: Два английских гика отправляются на одно из самых значимых фанатских событий в области фантастики — конвент ComicCon в Америке. По пути, неподалёку от известной Зоны 51, они встречают сбежавшего инопланетянина по имени Пол, который просит помочь ему добраться домой. Пытаясь спастись от правительственных агентов, герои случайно похищают женщину и натыкаются на обкуренную свидетельницу аварийной посадки Пола на Землю.

Рейтинг MPAA: Рейтинг R (Подростки до 17 лет допускаются на фильм только в сопровождении одного из родителей)
Мировая премьера: 14 февраля 2011
Премьера в России: 24 марта 2011, «UPI»
Бюджет: $40 000 000
Кассовые сборы: + $50 519 334 = $87 932 279

Изображение Изображение Изображение


Качество: DVD9 R5
Формат: DVD Video
Видео кодек: MPEG2
Аудио кодек: AC3 (Dolby Digital)
Видео: PAL 16:9 (720x576(0.515)) MPEG Video,25,000 кадр/сек, 5513 Кбит/сек
Аудио #1: English (Dolby AC3, 6 ch) 384 Кбит/сек, 48,0 КГц [Оригинальная звуковая дорожка]
Аудио #2: Italiano (Dolby AC3, 6 ch) 384 Кбит/сек, 48,0 КГц [Оригинальная звуковая дорожка]
Аудио #3: Russian (Dolby AC3, 6 ch) 384 Кбит/сек, 48,0 КГц [Профессиональный (дубляж)]
Субтитры: Английские, Итальянские, Румынские, Эстонские, Латвийские, Литовские, Украинские



"DVDInfo"
Title: Мой диск
Size: 6.61 Gb ( 6 928 446 KBytes ) - DVD-9
Enabled regions: 1, 2, 3, 4, 5, 6, 7, 8

VTS_01 :
Play Length:
Video: PAL 4:3 (720x576) VBR

VTS_02 :
Play Length: 01:39:27
Video: PAL 16:9 (720x576) VBR, Auto Letterboxed
Audio:
English (Dolby AC3, 6 ch)
Italiano (Dolby AC3, 6 ch)
Russian (Dolby AC3, 6 ch)
Subtitles:
English
Italiano
Romanian
Estonian
Latvian
Lithuanian
Ukrainian
Italiano
Russian

VTS_03 :
Play Length: 00:00:14
Video: PAL 16:9 (720x576) VBR, Auto Letterboxed
Audio:
English (Dolby AC3, 6 ch)

VTS_04 :
Play Length: 00:00:23
Video: PAL 16:9 (720x576) VBR, Auto Letterboxed
Audio:
English (Dolby AC3, 6 ch)

VTS_05 :
Play Length: 00:10:53
Video: PAL 16:9 (720x576) VBR, Auto Letterboxed
Audio:
English (Dolby AC3, 2 ch)
Subtitles:
English
Italiano

VTS_06 :
Play Length: 00:15:07
Video: PAL 16:9 (720x576) VBR, Auto Letterboxed
Audio:
English (Dolby AC3, 2 ch)
Subtitles:
English
Italiano

VTS_07 :
Play Length: 00:01:21
Video: PAL 16:9 (720x576) VBR, Auto Letterboxed
Audio:
English (Dolby AC3, 2 ch)
Subtitles:
English
Italiano

VTS_08 :
Play Length: 00:02:11
Video: PAL 16:9 (720x576) VBR, Auto Letterboxed
Audio:
English (Dolby AC3, 2 ch)
Subtitles:
English
Italiano

VTS_09 :
Play Length: 00:07:20
Video: PAL 16:9 (720x576) VBR, Auto Letterboxed
Subtitles:
English

VTS_10 :
Play Length: 00:09:00
Video: PAL 16:9 (720x576) VBR, Auto Letterboxed
Subtitles:
English

VTS_11 :
Play Length: 00:01:50
Video: PAL 16:9 (720x576) VBR, Auto Letterboxed
Subtitles:
English

VTS_12 :
Play Length: 00:12:40
Video: PAL 16:9 (720x576) VBR, Auto Letterboxed
Subtitles:
English

VTS_13 :
Play Length: 00:08:10+00:09:31
Video: PAL 16:9 (720x576) VBR, Auto Letterboxed
Subtitles:
English

VTS_14 :
Play Length: 00:01:30
Video: PAL 16:9 (720x576) VBR, Auto Letterboxed
Subtitles:
English

VTS_15 :
Play Length: 00:00:12+00:01:52
Video: PAL 16:9 (720x576) VBR, Auto Letterboxed
Audio:
English (Dolby AC3, 2 ch)
Subtitles:
English
Italiano
Russian
Romanian

VTS_16 :
Play Length: 00:00:09+00:00:08
Video: PAL 16:9 (720x576) VBR, Auto Letterboxed
Audio:
English (Dolby AC3, 2 ch)

VTS_17 :
Play Length: 00:01:55+00:02:25+00:01:56
Video: PAL 16:9 (720x576) VBR, Auto Letterboxed
Audio:
English (Dolby AC3, 2 ch)
Subtitles:
English
Italiano
Russian
Romanian

VTS_18 :
Play Length: 00:01:52
Video: PAL 16:9 (720x576) VBR, Auto Letterboxed
Audio:
Italiano (Dolby AC3, 2 ch)

Свернуть

"MediaInfo"
Общее
Полное имя : F:\Новинки 2011\Pol.sekretniy.materyalchik.2011.D.DVD9\VIDEO_TS\VTS_02_1.VOB
Формат : MPEG-PS
Размер файла : 1024 Мбайт
Продолжительность : 21 м.
Общий поток : 6628 Кбит/сек

Видео
Идентификатор : 224 (0xE0)
Формат : MPEG Video
Версия формата : Version 2
Профиль формата : Main@Main
Параметр BVOP формата : Да
Параметр матрицы формата : По умолчанию
Параметры GOP формата : M=3, N=12
Продолжительность : 21 м.
Вид битрейта : Переменный
Битрейт : 5344 Кбит/сек
Номинальный битрейт : 9800 Кбит/сек
Ширина : 720 пикс.
Высота : 576 пикс.
Соотношение сторон : 16:9
Частота кадров : 25,000 кадр/сек
Стандарт вещания : Component
Цветовое пространство : YUV
Подвыборка цветности : 4:2:0
Битовая глубина : 8 бит
Тип развёртки : Чересстрочная
Порядок развёртки : Верхнее поле первое
Метод сжатия : С потерями
Бит/(Пиксели*Кадры) : 0.515
Размер потока : 826 Мбайт (81%)

Аудио #1
Идентификатор : 189 (0xBD)-128 (0x80)
Формат : AC-3
Формат/Информация : Audio Coding 3
Расширение режима : CM (complete main)
Режим смешивания : DVD-Video
Продолжительность : 21 м.
Вид битрейта : Постоянный
Битрейт : 384 Кбит/сек
Канал(ы) : 6 канала(ов)
Расположение каналов : Front: L C R, Side: L R, LFE
Частота : 48,0 КГц
Битовая глубина : 16 бит
Метод сжатия : С потерями
Размер потока : 59,3 Мбайт (6%)

Аудио #2
Идентификатор : 189 (0xBD)-129 (0x81)
Формат : AC-3
Формат/Информация : Audio Coding 3
Расширение режима : CM (complete main)
Режим смешивания : DVD-Video
Продолжительность : 21 м.
Вид битрейта : Постоянный
Битрейт : 384 Кбит/сек
Канал(ы) : 6 канала(ов)
Расположение каналов : Front: L C R, Side: L R, LFE
Частота : 48,0 КГц
Битовая глубина : 16 бит
Метод сжатия : С потерями
Размер потока : 59,3 Мбайт (6%)

Аудио #3
Идентификатор : 189 (0xBD)-130 (0x82)
Формат : AC-3
Формат/Информация : Audio Coding 3
Расширение режима : CM (complete main)
Режим смешивания : DVD-Video
Продолжительность : 21 м.
Вид битрейта : Постоянный
Битрейт : 384 Кбит/сек
Канал(ы) : 6 канала(ов)
Расположение каналов : Front: L C R, Side: L R, LFE
Частота : 48,0 КГц
Битовая глубина : 16 бит
Метод сжатия : С потерями
Размер потока : 59,3 Мбайт (6%)
Свернуть

Скриншоты
Скриншоты меню
Изображение
Изображение
Изображение
Изображение
Изображение
Изображение
Изображение
Свернуть
Изображение
Изображение
Изображение
Изображение
Изображение
Изображение
Изображение
Изображение
Свернуть

Торент перезалит!Защита полностью снята!Прошу прощения за неудобства!

Изображение
Не в сети
Профиль  
 Добавлено: 2011-06-18 17:00 (спустя 20 часов)
Аватара пользователя
Стаж: 8 лет 3 месяца
Возраст: 43
Сообщений: 3290
Спасибок: 21012
Лайков: 3
На всякий случай пишу: Кто скачал ранее выложенный релиз, перегоните его в DVDFab весь целиком и не будет ни каких проблем
_________________
Изображение
Не в сети
Профиль  
 Добавлено: 2011-06-18 22:26 (спустя 5 часов)
Аватара пользователя
Стаж: 8 лет 3 месяца
Возраст: 43
Сообщений: 3290
Спасибок: 21012
Лайков: 3
фильм понравился, есть над чем посмеяться. Детям смотреть не рекомендуется :hi_hi_hi:
_________________
Изображение
Не в сети
Профиль  
 Добавлено: 2011-06-18 23:00 (спустя 33 минуты)
Top-releaser
Аватара пользователя
Стаж: 6 лет 11 месяцев
Возраст: 23
Сообщений: 2084
Спасибок: 11187
Лайков: 13
Ругаются конечно там много, особенно во второй половине фильма.
А что в допах?
_________________
Изображение
РАЗДАЧИ БОЛЬШЕ НЕ ПОДДЕРЖИВАЮ, простите.
Не в сети
Профиль  
 Добавлено: 2011-06-19 15:17 (спустя 16 часов)
Аватара пользователя
Стаж: 7 лет 3 месяца
Возраст: 34
Сообщений: 127
клевый фильмец
смотреть всем!!!!
Не в сети
Профиль  
 Добавлено: 2011-07-17 14:00 (спустя 27 дней)
Аватара пользователя
Стаж: 6 лет 8 месяцев
Сообщений: 12
Фильм хороший, местами ржачный. :-D
Не в сети
Профиль  
 Добавлено: 2012-04-02 23:39 (спустя 8 месяцев)
Стаж: 4 года 8 месяцев
Сообщений: 53
Лайков: 1
давно с ребятами смотрели ,оборжались, гогот стоял на всю гостинницу,автору большое спасибо ,посмотрю ещё разок!
Не в сети
Профиль  
Начать новую темуОтветить на тему  [ Сообщений: 7 ] 
Вы не можете начинать темы
Вы не можете отвечать на сообщения
Вы не можете редактировать свои сообщения
Вы не можете удалять свои сообщения